<?xml version="1.0" standalone="no"?>
<!DOCTYPE svg PUBLIC "-//W3C//DTD SVG 1.1//EN" "http://www.w3.org/Graphics/SVG/1.1/DTD/svg11.dtd" >
<svg xmlns="http://www.w3.org/2000/svg">
<metadata>
<json>
<![CDATA[
{
	"fontFamily": "Phosphor",
	"majorVersion": 1,
	"minorVersion": 3,
	"fontURL": "https://phosphoricons.com",
	"description": "A friendly icon family for everyone\nFont generated by IcoMoon.",
	"copyright": "Phosphor Icons",
	"designer": "Tobias Fried & Helena Zhang",
	"designerURL": "https://phosphoricons.com",
	"license": "MIT",
	"licenseURL": "https://raw.githubusercontent.com/phosphor-icons/phosphor-home/master/LICENSE",
	"version": "Version 1.3",
	"fontId": "Phosphor",
	"psName": "Phosphor",
	"subFamily": "Regular",
	"fullName": "Phosphor"
}
]]>
</json>
</metadata>
<defs>
<font id="Phosphor" horiz-adv-x="1024">
<font-face units-per-em="1024" ascent="1024" descent="0" />
<missing-glyph horiz-adv-x="1024" />
<glyph unicode="&#x20;" horiz-adv-x="0" d="" />
<glyph unicode="&#xf230;" glyph-name="activity" data-tags="activity" d="M640 160h-1.6c-12.98 0.774-23.841 9.082-28.324 20.579l-0.076 0.221-228.8 600-128-282c-5.152-11.18-16.261-18.8-29.151-18.8-0.017 0-0.035 0-0.052 0h-127.997c-17.673 0-32 14.327-32 32s14.327 32 32 32v0h107.2l151.6 333.2c5.376 11.207 16.633 18.808 29.666 18.808 0.258 0 0.515-0.003 0.772-0.009l-0.038 0.001c13.179-0.503 24.274-8.902 28.726-20.58l0.074-0.22 230-603.6 127.2 254.8c5.556 10.466 16.345 17.496 28.786 17.6h128.014c17.673 0 32-14.327 32-32s-14.327-32-32-32v0h-108.4l-150.8-302.4c-5.556-10.466-16.345-17.496-28.786-17.6h-0.014z" />
<glyph unicode="&#xf231;" glyph-name="address-book" data-tags="address-book" d="M332.8 326.4c5.143-3.994 11.69-6.403 18.799-6.403 0.141 0 0.282 0.001 0.422 0.003h-0.021c10.433 0 19.7 4.993 25.542 12.72l0.058 0.080c38.35 50.747 98.585 83.2 166.4 83.2s128.050-32.453 166.021-82.677l0.379-0.523c5.982-7.721 15.256-12.643 25.68-12.643 7.191 0 13.834 2.343 19.21 6.306l-0.089-0.063c7.807 5.9 12.8 15.167 12.8 25.6 0 7.24-2.404 13.919-6.458 19.28l0.058-0.080c-28.227 37.61-65.15 67.217-107.868 86.116l-1.732 0.684c32.008 29.356 52 71.368 52 118.051 0 88.366-71.634 160-160 160s-160-71.634-160-160c0-46.682 19.992-88.695 51.882-117.944l0.118-0.107c-44.451-19.583-81.374-49.19-109.098-86.102l-0.502-0.698c-3.996-5.281-6.4-11.96-6.4-19.2 0-10.433 4.993-19.7 12.72-25.542l0.080-0.058zM448 576c0 53.019 42.981 96 96 96s96-42.981 96-96c0-53.019-42.981-96-96-96v0c-52.928 0.226-95.774 43.072-96 95.978v0.022zM832 928h-576c-35.346 0-64-28.654-64-64v0-80h-64c-17.673 0-32-14.327-32-32s14.327-32 32-32v0h64v-96h-64c-17.673 0-32-14.327-32-32s14.327-32 32-32v0h64v-96h-64c-17.673 0-32-14.327-32-32s14.327-32 32-32v0h64v-96h-64c-17.673 0-32-14.327-32-32s14.327-32 32-32v0h64v-80c0-35.346 28.654-64 64-64v0h576c35.346 0 64 28.654 64 64v0 704c0 35.346-28.654 64-64 64v0zM832 160h-576v704h576z" />
<glyph unicode="&#xf232;" glyph-name="airplane" data-tags="airplane" d="M943.2 508.8l-302.4 151.2v172c0 70.692-57.308 128-128 128s-128-57.308-128-128v0-172l-303.2-151.2c-10.466-5.556-17.496-16.345-17.6-28.786v-128.014c-0.001-0.101-0.002-0.221-0.002-0.341 0-17.452 14.148-31.6 31.6-31.6 2.41 0 4.758 0.27 7.013 0.781l-0.212-0.040 281.6 56v-75.6l-54.8-54.4c-5.69-5.833-9.201-13.815-9.201-22.617 0-0.064 0-0.128 0.001-0.193v0.010-128c0-0.046 0-0.1 0-0.155 0-10.889 5.508-20.492 13.889-26.174l0.111-0.071c5.040-3.467 11.275-5.538 17.993-5.538 4.327 0 8.454 0.859 12.219 2.416l-0.212-0.078 148 59.2 148-59.2c3.546-1.498 7.667-2.378 11.991-2.4h0.009c6.724 0.070 12.948 2.153 18.114 5.673l-0.114-0.073c8.493 5.753 14 15.356 14 26.245 0 0.054 0 0.109 0 0.163v-0.008 128c0 0.033 0 0.072 0 0.111 0 8.699-3.515 16.576-9.201 22.29l0.001-0.001-54 54.8v75.6l282-56c1.947-0.427 4.184-0.671 6.478-0.671 7.579 0 14.534 2.668 19.979 7.116l-0.057-0.045c7.103 5.766 11.604 14.497 11.604 24.279 0 0.183-0.002 0.366-0.005 0.549v-0.027 128c-0.104 12.455-7.134 23.244-17.423 28.714l-0.177 0.086zM896.8 391.2l-281.6 56c-1.978 0.446-4.251 0.702-6.582 0.702-7.55 0-14.473-2.682-19.87-7.144l0.052 0.042c-7.338-5.839-12-14.768-12-24.787 0-0.005 0-0.009 0-0.014v0.001-128c0.147-8.709 3.625-16.578 9.211-22.412l-0.011 0.012 54-54.8v-67.6l-116 46.4c-3.545 1.518-7.669 2.4-12 2.4s-8.455-0.882-12.204-2.477l0.204 0.077-116-46.4v67.6l54.8 54.4c5.69 5.833 9.201 13.815 9.201 22.617 0 0.064 0 0.128-0.001 0.193v-0.010 128c0.001 0.101 0.002 0.221 0.002 0.341 0 17.452-14.148 31.6-31.6 31.6-2.41 0-4.758-0.27-7.013-0.781l0.212 0.040-281.6-56v69.2l302.4 150.8c10.466 5.556 17.496 16.345 17.6 28.786v192.014c0 35.346 28.654 64 64 64s64-28.654 64-64v0-192c0.104-12.455 7.134-23.244 17.423-28.714l0.177-0.086 302.4-150.8z" />
<glyph unicode="&#xf233;" glyph-name="airplane-in-flight" data-tags="airplane-in-flight" d="M896 160c0-17.673-14.327-32-32-32v0h-576c-17.673 0-32 14.327-32 32s14.327 32 32 32v0h576c17.673 0 32-14.327 32-32v0zM992 480v-96c0-17.673-14.327-32-32-32v0h-704.8c-0.164-0.001-0.357-0.001-0.551-0.001-71.81 0-132.516 47.545-152.355 112.873l-0.294 1.127-56.4 187.6c-1.656 5.469-2.609 11.753-2.609 18.261 0 14.497 4.732 27.89 12.735 38.717l-0.125-0.178c11.957 15.624 30.612 25.6 51.598 25.6 0.001 0 0.001 0 0.002 0h68.8c9.814-0.021 18.574-4.512 24.356-11.545l0.044-0.055 70.4-84.4h68.8l-36 107.6c-2.116 6.086-3.338 13.1-3.338 20.4 0 35.346 28.654 64 64 64 0.049 0 0.097 0 0.146 0h67.592c0.049 0 0.108 0 0.166 0 9.282 0 17.629-4.002 23.41-10.374l0.024-0.026 166.4-181.6h210c88.366 0 160-71.634 160-160v0zM928 480c-0.226 52.928-43.072 95.774-95.978 96h-224.022c-0.049 0-0.108 0-0.166 0-9.282 0-17.629 4.002-23.41 10.374l-0.024 0.026-166.4 181.6h-53.6l50-150c1.009-2.995 1.591-6.444 1.591-10.029 0-7.039-2.245-13.554-6.058-18.868l0.066 0.097c-5.804-8.034-15.144-13.202-25.692-13.202-0.108 0-0.217 0.001-0.325 0.002h-127.983c-9.814 0.021-18.574 4.512-24.356 11.545l-0.044 0.055-70.4 84.4h-54.4l56.4-187.6c12.108-39.877 48.548-68.401 91.649-68.401 0.123 0 0.247 0 0.37 0.001h672.781z" />
<glyph unicode="&#xf234;" glyph-name="airplane-landing" data-tags="airplane-landing" d="M992 160c0-17.673-14.327-32-32-32v0h-576c-17.673 0-32 14.327-32 32s14.327 32 32 32v0h576c17.673 0 32-14.327 32-32v0zM887.2 257.2l-706.4 198c-67.836 19.613-116.631 81.085-116.8 153.981v210.419c0 0.041 0 0.090 0 0.138 0 35.346 28.654 64 64 64 7.3 0 14.314-1.222 20.85-3.473l-0.45 0.135 53.6-18c7.924-2.704 14.34-8.083 18.314-15.037l0.086-0.163 57.6-108.4 74-23.2v104c0 0.041 0 0.090 0 0.138 0 35.346 28.654 64 64 64 7.3 0 14.314-1.222 20.85-3.473l-0.45 0.135 53.6-18c7.644-2.389 13.829-7.534 17.522-14.245l0.078-0.155 121.6-212.8 181.6-50.4c68.081-19.35 117.12-80.937 117.2-153.991v-142.809c-0.066-10.418-5.039-19.661-12.722-25.543l-0.078-0.057c-5.323-3.9-11.972-6.282-19.172-6.4h-0.028zM864 430.8c-0.201 43.81-29.594 80.701-69.72 92.233l-0.68 0.167-194 54c-8.263 2.275-15.017 7.596-19.119 14.649l-0.081 0.151-122 213.6-42.4 14v-147.6c-0.031-10.513-5.191-19.814-13.107-25.536l-0.093-0.064c-5.095-3.992-11.597-6.402-18.662-6.402-3.485 0-6.834 0.587-9.952 1.666l0.214-0.064-128 40c-8.121 2.543-14.711 7.963-18.716 15.039l-0.084 0.161-58 108.8-41.6 14v-210.4c0.006-43.757 29.286-80.674 69.322-92.232l0.678-0.168 666-186.8z" />
<glyph unicode="&#xf235;" glyph-name="airplane-takeoff" data-tags="airplane-takeoff" d="M704 160c0-17.673-14.327-32-32-32v0h-576c-17.673 0-32 14.327-32 32s14.327 32 32 32v0h576c17.673 0 32-14.327 32-32v0zM1007.6 650.4c-1.891-9.435-7.618-17.26-15.449-21.917l-0.151-0.083-605.6-352c-23.025-13.808-50.803-21.973-80.488-21.973-42.32 0-80.764 16.596-109.178 43.636l0.066-0.062-150.8 141.2c-12.637 11.66-20.525 28.305-20.525 46.792 0 3.819 0.337 7.558 0.982 11.192l-0.056-0.384c3.994 21.679 18.324 39.314 37.586 47.837l0.414 0.163 66.8 28.8c3.795 1.525 8.194 2.41 12.8 2.41s9.005-0.885 13.038-2.493l-0.238 0.084 97.2-42 59.6 34.4-90 80.8c-12.843 11.812-20.863 28.696-20.863 47.454 0 26.181 15.623 48.714 38.056 58.783l0.407 0.163 66 28.4c3.716 1.498 8.026 2.366 12.538 2.366 3.664 0 7.194-0.573 10.506-1.634l-0.244 0.067 226.4-75.6 164.8 97.2c23.251 14.048 51.334 22.36 81.359 22.36 49.89 0 94.42-22.949 123.61-58.866l0.231-0.293 74.4-90.8c4.545-5.485 7.303-12.595 7.303-20.348 0-1.998-0.183-3.952-0.533-5.849l0.030 0.197zM927.6 664.8l-50.8 62c-17.74 21.634-44.47 35.33-74.398 35.33-18 0-34.842-4.954-49.239-13.572l0.437 0.242-177.2-104.4c-4.654-2.793-10.27-4.445-16.271-4.445-3.624 0-7.107 0.602-10.354 1.712l0.225-0.067-228.4 76-54.8-23.2 122.8-110.8c6.495-6.011 10.547-14.581 10.547-24.097 0-1.093-0.053-2.173-0.158-3.238l0.011 0.135c-1.286-10.333-7.334-19.026-15.844-23.918l-0.156-0.082-112-64c-4.731-2.751-10.411-4.374-16.471-4.374-4.441 0-8.679 0.872-12.55 2.454l0.222-0.080-99.2 42.8-54.4-23.2 150.8-141.6c17.026-16.157 40.091-26.094 65.478-26.094 17.901 0 34.649 4.941 48.953 13.534l-0.431-0.24z" />
<glyph unicode="&#xf236;" glyph-name="airplane-tilt" data-tags="airplane-tilt" d="M865.6 685.2c18.225 21.954 29.284 50.426 29.284 81.481 0 70.692-57.308 128-128 128-34.741 0-66.249-13.84-89.312-36.308l0.028 0.027c-1.532-1.27-2.853-2.718-3.954-4.328l-0.046-0.072-106.4-112.8-332.4 120.8c-3.337 1.309-7.202 2.068-11.243 2.068-8.732 0-16.637-3.542-22.357-9.268v0l-96-96c-5.779-5.908-9.344-14.001-9.344-22.927 0-1.082 0.052-2.152 0.155-3.207l-0.011 0.134c1.26-9.847 6.621-18.238 14.287-23.526l0.113-0.074 255.2-170-58.8-59.2h-82.8c-0.054 0-0.118 0.001-0.183 0.001-8.802 0-16.785-3.51-22.624-9.207l0.007 0.006-96-96c-5.675-5.946-9.167-14.018-9.167-22.905 0-2.514 0.279-4.962 0.809-7.316l-0.042 0.222c2.527-10.902 10.364-19.534 20.576-23.131l0.224-0.069 152.4-51.6 51.6-152.4c3.666-10.436 12.298-18.273 22.984-20.758l0.216-0.042 7.2-0.8c8.854 0.039 16.883 3.537 22.812 9.212l95.988 95.988c5.69 5.833 9.201 13.815 9.201 22.617 0 0.064 0 0.128-0.001 0.193v-0.010 82l59.2 53.6 170.4-249.6c5.324-7.738 13.761-13.004 23.463-13.989l0.137-0.011c0.676-0.048 1.466-0.075 2.261-0.075 9.044 0 17.264 3.531 23.355 9.29l-0.016-0.015 96 96c5.726 5.72 9.268 13.625 9.268 22.357 0 4.042-0.759 7.906-2.142 11.458l0.074-0.215-120.8 332.4 119.2 112c2.019 1.712 3.743 3.689 5.138 5.895l0.062 0.105zM813.2 722.8l-1.6-2-129.6-121.6c-6.141-5.778-9.965-13.959-9.965-23.032 0-3.938 0.72-7.708 2.037-11.185l-0.072 0.217 120.8-332.8-54-54.4-169.6 248c-5.121 7.515-13.279 12.634-22.668 13.589l-0.132 0.011h-3.6c-8.32-0.123-15.877-3.288-21.632-8.428l0.032 0.028-96.8-88c-6.267-5.806-10.227-14.024-10.4-23.169v-82.831l-50.4-50-40 118.4c-3.273 9.433-10.567 16.727-19.775 19.932l-0.225 0.068-118.4 40.4 50 50h82.8c0.054 0 0.118-0.001 0.183-0.001 8.802 0 16.785 3.51 22.624 9.207l-0.007-0.006 96 96c5.779 5.908 9.344 14.001 9.344 22.927 0 1.082-0.052 2.152-0.155 3.207l0.011-0.134c-1.26 9.847-6.621 18.238-14.287 23.526l-0.113 0.074-255.2 170 54 54 332.8-120.8c3.26-1.244 7.030-1.965 10.968-1.965 9.073 0 17.253 3.824 23.017 9.948l0.015 0.016 126.8 134 0.8 1.2c11.045 9.168 25.37 14.732 40.993 14.732 17.719 0 33.766-7.156 45.41-18.735l-0.003 0.003c11.646-11.532 18.857-27.524 18.857-45.2s-7.211-33.668-18.852-45.195l-0.005-0.005z" />
<glyph unicode="&#xf237;" glyph-name="airplay" data-tags="airplay" d="M536.4 404.8c-5.907 6.93-14.643 11.296-24.4 11.296s-18.493-4.366-24.363-11.252l-0.037-0.045-192-224c-4.775-5.557-7.682-12.839-7.682-20.8 0-17.673 14.327-32 32-32 0.029 0 0.058 0 0.087 0h383.996c0.024 0 0.053 0 0.082 0 17.673 0 32 14.327 32 32 0 7.961-2.907 15.243-7.718 20.843l0.036-0.042zM389.6 192l122.4 142.8 122.4-142.8zM928 768v-448c-0.226-52.928-43.072-95.774-95.978-96h-64.022c-17.673 0-32 14.327-32 32s14.327 32 32 32v0h64c17.673 0 32 14.327 32 32v0 448c0 17.673-14.327 32-32 32v0h-640c-17.673 0-32-14.327-32-32v0-448c0-17.673 14.327-32 32-32v0h64c17.673 0 32-14.327 32-32s-14.327-32-32-32v0h-64c-52.928 0.226-95.774 43.072-96 95.978v448.022c0.226 52.928 43.072 95.774 95.978 96h640.022c52.928-0.226 95.774-43.072 96-95.978v-0.022z" />
<glyph unicode="&#xf238;" glyph-name="alarm" data-tags="alarm" d="M736 544c17.673 0 32-14.327 32-32s-14.327-32-32-32v0h-224c-17.673 0-32 14.327-32 32v0 224c0 17.673 14.327 32 32 32s32-14.327 32-32v0-192zM783.6 783.6c69.675-69.581 112.776-165.757 112.776-272 0-212.298-172.102-384.4-384.4-384.4s-384.4 172.102-384.4 384.4c0 212.298 172.102 384.4 384.4 384.4 0.008 0 0.017 0 0.025 0h-0.001c0.19 0 0.414 0.001 0.639 0.001 105.847 0 201.66-42.96 270.955-112.394l0.006-0.006zM832 512c-0.238 176.331-143.236 319.183-319.6 319.183-176.51 0-319.6-143.090-319.6-319.6s143.090-319.6 319.6-319.6c88.259 0 168.163 35.776 226 93.617v0c57.822 57.592 93.602 137.278 93.602 225.321 0 0.38-0.001 0.759-0.002 1.138v-0.059zM942 806l-136 136c-5.877 6.469-14.323 10.514-23.714 10.514-17.673 0-32-14.327-32-32 0-9.39 4.045-17.836 10.487-23.69l0.026-0.024 136-136c5.761-5.676 13.669-9.185 22.397-9.2h0.003c8.854 0.039 16.883 3.537 22.812 9.212l-0.012-0.012c5.775 5.788 9.345 13.777 9.345 22.6s-3.571 16.812-9.346 22.601l0.001-0.001zM263.2 942c-5.788 5.775-13.777 9.345-22.6 9.345s-16.812-3.571-22.601-9.346l-135.999-135.999c-5.775-5.788-9.345-13.777-9.345-22.6s3.571-16.812 9.346-22.601l-0.001 0.001c5.917-5.663 13.946-9.161 22.792-9.2h0.008c8.731 0.015 16.639 3.524 22.404 9.204l135.996 135.996c5.775 5.788 9.345 13.777 9.345 22.6s-3.571 16.812-9.346 22.601l0.001-0.001z" />
<glyph unicode="&#xf239;" glyph-name="alien" data-tags="alien" d="M512 960c-211.894-0.454-383.546-172.106-384-383.956v-0.044c0-96 50.4-220.4 134.4-332s178-180 249.6-180 164.8 67.2 249.6 180 134.4 236 134.4 332c-0.454 211.894-172.106 383.546-383.956 384h-0.044zM710.4 282.4c-69.6-92.4-149.2-154.4-198.4-154.4s-128.8 62-198.4 154.4c-75.2 99.6-121.6 212-121.6 293.6 0 176.731 143.269 320 320 320s320-143.269 320-320v0c0-81.6-46.4-194-121.6-293.6zM480 464v16c0 88.366-71.634 160-160 160v0c-35.346 0-64-28.654-64-64v0-16c0-88.366 71.634-160 160-160v0c35.346 0 64 28.654 64 64v0zM320 560v16c52.928-0.226 95.774-43.072 96-95.978v-16.022c-52.928 0.226-95.774 43.072-96 95.978v0.022zM704 640c-88.366 0-160-71.634-160-160v0-16c0-35.346 28.654-64 64-64v0c88.366 0 160 71.634 160 160v0 16c0 35.346-28.654 64-64 64v0zM704 560c-0.226-52.928-43.072-95.774-95.978-96h-0.022v16c0.226 52.928 43.072 95.774 95.978 96h0.022zM608 288c0-17.673-14.327-32-32-32v0h-128c-17.673 0-32 14.327-32 32s14.327 32 32 32v0h128c17.673 0 32-14.327 32-32v0z" />
<glyph unicode="&#xf23a;" glyph-name="align-bottom" data-tags="align-bottom" d="M896 160c0-17.673-14.327-32-32-32v0h-704c-17.673 0-32 14.327-32 32s14.327 32 32 32v0h704c17.673 0 32-14.327 32-32v0zM544 320v384c0 35.346 28.654 64 64 64v0h160c35.346 0 64-28.654 64-64v0-384c0-35.346-28.654-64-64-64v0h-160c-35.346 0-64 28.654-64 64v0zM608 320h160v384h-160zM192 320v544c0 35.346 28.654 64 64 64v0h160c35.346 0 64-28.654 64-64v0-544c0-35.346-28.654-64-64-64v0h-160c-35.346 0-64 28.654-64 64v0zM256 320h160v544h-160z" />
<glyph unicode="&#xf23b;" glyph-name="align-bottom-simple" data-tags="align-bottom-simple" d="M832 96c0-17.673-14.327-32-32-32v0h-576c-17.673 0-32 14.327-32 32s14.327 32 32 32v0h576c17.673 0 32-14.327 32-32v0zM320 256v608c0 35.346 28.654 64 64 64v0h256c35.346 0 64-28.654 64-64v0-608c0-35.346-28.654-64-64-64v0h-256c-35.346 0-64 28.654-64 64v0zM384 256h256v608h-256z" />
<glyph unicode="&#xf23c;" glyph-name="align-center-horizontal" data-tags="align-center-horizontal" d="M832 480h-288v64h192c35.346 0 64 28.654 64 64v0 160c0 35.346-28.654 64-64 64v0h-192v64c0 17.673-14.327 32-32 32s-32-14.327-32-32v0-64h-192c-35.346 0-64-28.654-64-64v0-160c0-35.346 28.654-64 64-64v0h192v-64h-288c-35.346 0-64-28.654-64-64v0-160c0-35.346 28.654-64 64-64v0h288v-64c0-17.673 14.327-32 32-32s32 14.327 32 32v0 64h288c35.346 0 64 28.654 64 64v0 160c0 35.346-28.654 64-64 64v0zM288 768h448v-160h-448zM832 256h-640v160h640v-160z" />
<glyph unicode="&#xf23d;" glyph-name="align-center-horizontal-simple" data-tags="align-center-horizontal-simple" d="M832 704h-288v128c0 17.673-14.327 32-32 32s-32-14.327-32-32v0-128h-288c-35.346 0-64-28.654-64-64v0-256c0-35.346 28.654-64 64-64v0h288v-128c0-17.673 14.327-32 32-32s32 14.327 32 32v0 128h288c35.346 0 64 28.654 64 64v0 256c0 35.346-28.654 64-64 64v0zM832 384h-640v256h640v-256z" />
<glyph unicode="&#xf23e;" glyph-name="align-center-vertical" data-tags="align-center-vertical" d="M896 544h-64v192c0 35.346-28.654 64-64 64v0h-160c-35.346 0-64-28.654-64-64v0-192h-64v288c0 35.346-28.654 64-64 64v0h-160c-35.346 0-64-28.654-64-64v0-288h-64c-17.673 0-32-14.327-32-32s14.327-32 32-32v0h64v-288c0-35.346 28.654-64 64-64v0h160c35.346 0 64 28.654 64 64v0 288h64v-192c0-35.346 28.654-64 64-64v0h160c35.346 0 64 28.654 64 64v0 192h64c17.673 0 32 14.327 32 32s-14.327 32-32 32v0zM416 192h-160v640h160zM768 288h-160v448h160z" />
<glyph unicode="&#xf23f;" glyph-name="align-center-vertical-simple" data-tags="align-center-vertical-simple" d="M832 544h-128v288c0 35.346-28.654 64-64 64v0h-256c-35.346 0-64-28.654-64-64v0-288h-128c-17.673 0-32-14.327-32-32s14.327-32 32-32v0h128v-288c0-35.346 28.654-64 64-64v0h256c35.346 0 64 28.654 64 64v0 288h128c17.673 0 32 14.327 32 32s-14.327 32-32 32v0zM640 192h-256v640h256z" />
<glyph unicode="&#xf240;" glyph-name="align-left" data-tags="align-left" d="M192 864v-704c0-17.673-14.327-32-32-32s-32 14.327-32 32v0 704c0 17.673 14.327 32 32 32s32-14.327 32-32v0zM256 608v160c0 35.346 28.654 64 64 64v0h384c35.346 0 64-28.654 64-64v0-160c0-35.346-28.654-64-64-64v0h-384c-35.346 0-64 28.654-64 64v0zM320 608h384v160h-384zM928 416v-160c0-35.346-28.654-64-64-64v0h-544c-35.346 0-64 28.654-64 64v0 160c0 35.346 28.654 64 64 64v0h544c35.346 0 64-28.654 64-64v0zM864 256v160h-544v-160z" />
<glyph unicode="&#xf241;" glyph-name="align-left-simple" data-tags="align-left-simple" d="M160 800v-576c0-17.673-14.327-32-32-32s-32 14.327-32 32v0 576c0 17.673 14.327 32 32 32s32-14.327 32-32v0zM960 640v-256c0-35.346-28.654-64-64-64v0h-608c-35.346 0-64 28.654-64 64v0 256c0 35.346 28.654 64 64 64v0h608c35.346 0 64-28.654 64-64v0zM896 384v256h-608v-256z" />
<glyph unicode="&#xf242;" glyph-name="align-right" data-tags="align-right" d="M896 864v-704c0-17.673-14.327-32-32-32s-32 14.327-32 32v0 704c0 17.673 14.327 32 32 32s32-14.327 32-32v0zM768 768v-160c0-35.346-28.654-64-64-64v0h-384c-35.346 0-64 28.654-64 64v0 160c0 35.346 28.654 64 64 64v0h384c35.346 0 64-28.654 64-64v0zM704 768h-384v-160h384zM768 416v-160c0-35.346-28.654-64-64-64v0h-544c-35.346 0-64 28.654-64 64v0 160c0 35.346 28.654 64 64 64v0h544c35.346 0 64-28.654 64-64v0zM704 416h-544v-160h544z" />
<glyph unicode="&#xf243;" glyph-name="align-right-simple" data-tags="align-right-simple" d="M928 800v-576c0-17.673-14.327-32-32-32s-32 14.327-32 32v0 576c0 17.673 14.327 32 32 32s32-14.327 32-32v0zM800 640v-256c0-35.346-28.654-64-64-64v0h-608c-35.346 0-64 28.654-64 64v0 256c0 35.346 28.654 64 64 64v0h608c35.346 0 64-28.654 64-64v0zM736 640h-608v-256h608z" />
<glyph unicode="&#xf244;" glyph-name="align-top" data-tags="align-top" d="M896 864c0-17.673-14.327-32-32-32v0h-704c-17.673 0-32 14.327-32 32s14.327 32 32 32v0h704c17.673 0 32-14.327 32-32v0zM832 704v-384c0-35.346-28.654-64-64-64v0h-160c-35.346 0-64 28.654-64 64v0 384c0 35.346 28.654 64 64 64v0h160c35.346 0 64-28.654 64-64v0zM768 704h-160v-384h160zM480 704v-544c0-35.346-28.654-64-64-64v0h-160c-35.346 0-64 28.654-64 64v0 544c0 35.346 28.654 64 64 64v0h160c35.346 0 64-28.654 64-64v0zM416 704h-160v-544h160z" />
<glyph unicode="&#xf245;" glyph-name="align-top-simple" data-tags="align-top-simple" d="M832 896c0-17.673-14.327-32-32-32v0h-576c-17.673 0-32 14.327-32 32s14.327 32 32 32v0h576c17.673 0 32-14.327 32-32v0zM704 736v-608c0-35.346-28.654-64-64-64v0h-256c-35.346 0-64 28.654-64 64v0 608c0 35.346 28.654 64 64 64v0h256c35.346 0 64-28.654 64-64v0zM640 736h-256v-608h256z" />
<glyph unicode="&#xf246;" glyph-name="anchor" data-tags="anchor" d="M864 480c-17.673 0-32-14.327-32-32v0c0-88.366-71.634-160-160-160v0c-49.306-0.051-94.243-18.718-128.168-49.349l0.168 0.149v305.2h128c17.673 0 32 14.327 32 32s-14.327 32-32 32v0h-128v100.8c46.649 14.229 80 56.885 80 107.331 0 61.856-50.144 112-112 112s-112-50.144-112-112c0-50.446 33.351-93.102 79.207-107.123l0.793-0.209v-100.8h-128c-17.673 0-32-14.327-32-32s14.327-32 32-32v0h128v-305.2c-33.757 30.482-78.694 49.149-127.99 49.2h-0.010c-88.366 0-160 71.634-160 160v0c0 17.673-14.327 32-32 32s-32-14.327-32-32v0c0-123.712 100.288-224 224-224v0c70.601-0.227 127.773-57.399 128-127.978v-0.022c0-17.673 14.327-32 32-32s32 14.327 32 32v0c0.227 70.601 57.399 127.773 127.978 128h0.022c123.712 0 224 100.288 224 224v0c0 17.673-14.327 32-32 32v0zM464 816c0 26.51 21.49 48 48 48s48-21.49 48-48c0-26.51-21.49-48-48-48v0c-26.51 0-48 21.49-48 48v0z" />
<glyph unicode="&#xf247;" glyph-name="anchor-simple" data-tags="anchor-simple" d="M896 576h-96c-17.673 0-32-14.327-32-32s14.327-32 32-32v0h62.4c-15.953-169.042-149.358-302.447-316.99-318.292l-1.41-0.108v450.4c55.647 14.719 96 64.615 96 123.935 0 70.692-57.308 128-128 128s-128-57.308-128-128c0-59.321 40.353-109.217 95.107-123.734l0.893-0.201v-450.4c-169.042 15.953-302.447 149.358-318.292 316.99l-0.108 1.41h62.4c17.673 0 32 14.327 32 32s-14.327 32-32 32v0h-96c-17.673 0-32-14.327-32-32v0c0-229.75 186.25-416 416-416s416 186.25 416 416v0c0 17.673-14.327 32-32 32v0zM448 768c0 35.346 28.654 64 64 64s64-28.654 64-64c0-35.346-28.654-64-64-64v0c-35.346 0-64 28.654-64 64v0z" />
<glyph unicode="&#xf248;" glyph-name="android-logo" data-tags="android-logo" d="M704 400c0-26.51-21.49-48-48-48s-48 21.49-48 48c0 26.51 21.49 48 48 48v0c26.51 0 48-21.49 48-48v0zM368 448c-26.51 0-48-21.49-48-48s21.49-48 48-48c26.51 0 48 21.49 48 48v0c0 26.51-21.49 48-48 48v0zM960 352v-96c0-35.346-28.654-64-64-64v0h-768c-35.346 0-64 28.654-64 64v0 91.6c0 0.103 0 0.224 0 0.345 0 129.549 54.309 246.413 141.401 329.068l0.199 0.188-100.4 100c-4.578 5.546-7.355 12.726-7.355 20.555 0 17.894 14.506 32.4 32.4 32.4 7.829 0 15.009-2.777 20.61-7.399l-0.055 0.044 104.4-104.8c71.684 51.302 161.137 82.032 257.767 82.032 96.142 0 185.18-30.421 258.011-82.162l-1.378 0.929 103.6 104c5.546 4.578 12.726 7.355 20.555 7.355 17.894 0 32.4-14.506 32.4-32.4 0-7.829-2.777-15.009-7.399-20.61l0.044 0.055-99.6-99.2 9.2-8.8c81.283-80.622 131.602-192.354 131.602-315.839 0-0.479-0.001-0.957-0.002-1.436v0.074zM896 352c0.001 0.387 0.002 0.846 0.002 1.304 0 105.837-43.132 201.6-112.776 270.67l-0.026 0.026c-9.5 9.321-19.538 18.218-30.014 26.592l-0.786 0.608c0 0.221-0.179 0.4-0.4 0.4v0c-64.658 52.566-148.008 84.402-238.792 84.402-0.425 0-0.849-0.001-1.273-0.002h-1.134c-211.2-0.8-382.8-175.2-382.8-388.4v-91.6h768z" />
<glyph unicode="&#xf249;" glyph-name="angular-logo" data-tags="angular-logo" d="M908.4 765.6l-384 160c-3.67 1.52-7.932 2.403-12.4 2.403s-8.73-0.883-12.621-2.483l0.221 0.080-384-160c-11.563-5.118-19.485-16.491-19.485-29.715 0-1.511 0.103-2.998 0.304-4.454l-0.019 0.169 64-480c1.492-10.673 7.999-19.561 17.023-24.315l0.177-0.085 320-160c4.22-2.020 9.172-3.2 14.4-3.2s10.18 1.18 14.606 3.288l-0.206-0.088 320 160c9.201 4.839 15.708 13.727 17.18 24.229l0.020 0.171 64 480c0.181 1.287 0.285 2.774 0.285 4.285 0 13.223-7.922 24.596-19.278 29.633l-0.207 0.082zM802.4 277.2l-290.4-145.6-290.4 145.6-58.8 438.8 349.2 145.2 349.2-145.2zM483.2 686.4l-144-288c-2.143-4.195-3.399-9.151-3.399-14.4 0-17.783 14.416-32.199 32.199-32.199 12.534 0 23.396 7.162 28.716 17.616l0.084 0.183 33.6 67.6h163.2l33.6-67.6c5.49-10.526 16.319-17.591 28.799-17.6h0.001c5.235 0.115 10.168 1.281 14.637 3.296l-0.237-0.096c10.543 5.597 17.601 16.507 17.601 29.066 0 5.138-1.181 9.999-3.287 14.329l0.085-0.195-144 288c-5.5 10.509-16.327 17.557-28.8 17.557s-23.3-7.048-28.715-17.379l-0.085-0.178zM561.6 501.2h-99.2l49.6 99.2z" />
<glyph unicode="&#xf24a;" glyph-name="aperture" data-tags="aperture" d="M928 512c-0.228 229.659-186.341 415.772-415.978 416h-0.022c-229.659-0.228-415.772-186.341-416-415.978v-0.022c0.228-229.659 186.341-415.772 415.978-416h0.422c229.487 0.455 415.373 186.482 415.6 415.978v0.022zM439.2 426.4l-37.6 105.6 72.8 85.6 110.4-20 37.6-105.6-72.8-85.6zM196.8 668.4l204.8-37.6-214.8-252.8c-16.805 39.655-26.572 85.77-26.572 134.166 0 56.916 13.509 110.678 37.494 158.253l-0.923-2.019zM837.2 646c16.805-39.655 26.572-85.77 26.572-134.166 0-56.916-13.509-110.678-37.494-158.253l0.923 2.019-204.8 37.6zM805.2 706.8l-134.8-158.8-112 312.8c79.788-10.52 149.633-46.757 202.374-99.974l0.026-0.026c16.169-16.117 30.781-33.778 43.602-52.748l0.798-1.252zM489.6 863.2l70-196-326.4 59.6c9.816 12.442 19.633 23.527 30.033 34.033l-0.033-0.033c58.336 58.79 137.452 96.887 225.406 102.351l0.994 0.049zM218.8 317.2l134.8 158.8 112-312.8c-79.788 10.52-149.633 46.757-202.374 99.974l-0.026 0.026c-16.169 16.117-30.781 33.778-43.602 52.748l-0.798 1.252zM534.4 160.8l-70 196 326.4-59.6c-9.816-12.442-19.633-23.527-30.033-34.033l0.033 0.033c-58.336-58.79-137.452-96.887-225.406-102.351l-0.994-0.049z" />
<glyph unicode="&#xf24b;" glyph-name="app-store-logo" data-tags="app-store-logo" d="M257.2 207.6l-37.6-64c-5.762-9.386-15.956-15.561-27.594-15.6h-0.006c-6.037 0.098-11.674 1.717-16.573 4.49l0.173-0.090c-9.414 5.781-15.597 16.019-15.597 27.703 0 6.004 1.633 11.627 4.48 16.448l-0.082-0.151 38 64c5.426 10.398 16.13 17.375 28.462 17.375 17.673 0 32-14.327 32-32 0-6.796-2.119-13.097-5.731-18.279l0.069 0.104zM928 384h-191.2l-122.8 208c-5.669 9.489-15.886 15.744-27.563 15.744-6.069 0-11.744-1.69-16.579-4.624l0.142 0.080c-9.466-5.576-15.717-15.717-15.717-27.318 0-6.014 1.68-11.635 4.596-16.421l-0.079 0.139 245.6-416c5.762-9.386 15.956-15.561 27.594-15.6h0.006c6.037 0.098 11.674 1.717 16.573 4.49l-0.173-0.090c9.414 5.781 15.597 16.019 15.597 27.703 0 6.004-1.633 11.627-4.48 16.448l0.082-0.151-84.8 143.6h153.2c17.673 0 32 14.327 32 32s-14.327 32-32 32v0zM570 384h-208.4l177.6 300.8h0.4l96 162.4c2.83 4.687 4.505 10.348 4.505 16.4 0 17.731-14.374 32.105-32.105 32.105-11.679 0-21.902-6.236-27.519-15.56l-0.081-0.144-68.4-115.6-68.4 116c-5.698 9.469-15.921 15.705-27.6 15.705-17.731 0-32.105-14.374-32.105-32.105 0-6.052 1.675-11.713 4.586-16.544l-0.081 0.144 86.4-146-187.6-317.6h-191.2c-17.673 0-32-14.327-32-32s14.327-32 32-32v0h474c17.673 0 32 14.327 32 32s-14.327 32-32 32v0z" />
<glyph unicode="&#xf24c;" glyph-name="app-window" data-tags="app-window" d="M864 864h-704c-35.346 0-64-28.654-64-64v0-576c0-35.346 28.654-64 64-64v0h704c35.346 0 64 28.654 64 64v0 576c0 35.346-28.654 64-64 64v0zM864 224h-704v576h704v-576zM320 688c0-26.51-21.49-48-48-48s-48 21.49-48 48c0 26.51 21.49 48 48 48v0c26.51 0 48-21.49 48-48v0zM480 688c0-26.51-21.49-48-48-48s-48 21.49-48 48c0 26.51 21.49 48 48 48v0c26.51 0 48-21.49 48-48v0z" />
<glyph unicode="&#xf24d;" glyph-name="apple-logo" data-tags="apple-logo" d="M522.8 905.6c23.955 60.256 81.653 102.131 149.166 102.4h0.034c17.673 0 32-14.327 32-32s-14.327-32-32-32v0c-40.603-0.13-75.284-25.342-89.372-60.947l-0.228-0.653c-4.777-12.041-16.324-20.4-29.824-20.4-0.062 0-0.124 0-0.186 0.001h0.010c-4.036 0.089-7.874 0.815-11.458 2.079l0.258-0.079c-12.154 4.721-20.613 16.326-20.613 29.906 0 4.209 0.813 8.229 2.29 11.91l-0.076-0.215zM903.6 360c-56-136.4-157.6-232-247.6-232h-288c-65.6 0-138.8 50.8-196.4 136-56.482 83.137-90.56 185.487-91.598 295.735l-0.002 0.265c0 0.011 0 0.024 0 0.036 0 150.221 121.779 272 272 272 60.142 0 115.724-19.519 160.759-52.568l-0.759 0.531c44.282 32.533 99.878 52.062 160.035 52.062 86.581 0 163.714-40.453 213.528-103.49l0.436-0.572c4.015-5.38 6.429-12.16 6.429-19.504 0-11.595-6.017-21.785-15.098-27.618l-0.13-0.078c-46.692-28.504-77.386-79.178-77.386-137.022 0-62.181 35.471-116.077 87.282-142.558l0.905-0.42c10.769-5.19 18.068-16.021 18.068-28.556 0-4.421-0.908-8.629-2.547-12.45l0.078 0.206zM833.2 359.2c-59.076 41.009-97.269 108.501-97.269 184.914 0 67.329 29.653 127.733 76.611 168.864l0.258 0.222c-36.907 33.994-86.384 54.835-140.729 54.835-53.086 0-101.527-19.887-138.28-52.618l0.208 0.182c-5.765-5.365-13.522-8.658-22.047-8.658-8.104 0-15.512 2.975-21.194 7.892l0.041-0.035c-36.624 32.646-85.184 52.595-138.402 52.595-114.743 0-207.827-92.732-208.397-207.34v-0.054c0-199.6 137.6-368 224-368h288c57.6 0 130.8 70.4 177.2 167.2z" />
<glyph unicode="&#xf24e;" glyph-name="apple-podcasts-logo" data-tags="apple-podcasts-logo" d="M612.8 465.2c16.958 21.51 27.2 49.003 27.2 78.888 0 70.692-57.308 128-128 128s-128-57.308-128-128c0-29.885 10.242-57.378 27.407-79.161l-0.207 0.273c-9.145-5.393-16.846-12.201-23.063-20.217l-0.137-0.183c-13.604-16.395-21.859-37.654-21.859-60.841 0-6.639 0.677-13.12 1.965-19.377l-0.106 0.618 38.4-192c9.076-44.282 47.692-77.13 93.992-77.2h23.208c46.308 0.070 84.924 32.918 93.894 76.58l0.106 0.62 38.4 192c1.182 5.64 1.859 12.121 1.859 18.759 0 23.187-8.255 44.446-21.986 60.998l0.127-0.158c-6.354 8.199-14.055 15.007-22.827 20.196l-0.373 0.204zM512 608c35.346 0 64-28.654 64-64s-28.654-64-64-64c-35.346 0-64 28.654-64 64v0c0 35.346 28.654 64 64 64v0zM593.2 377.6l-38.4-192c-2.915-14.684-15.695-25.6-31.025-25.6-0.061 0-0.123 0-0.184 0.001h-23.191c-0.052 0-0.113 0-0.175 0-15.33 0-28.11 10.916-30.992 25.399l-0.033 0.201-38.4 192c-0.43 1.981-0.677 4.256-0.677 6.589 0 7.674 2.668 14.724 7.126 20.275l-0.049-0.063c6.037 7.018 14.886 11.472 24.778 11.6h100.022c9.914-0.128 18.763-4.582 24.763-11.556l0.037-0.044c4.409-5.487 7.077-12.538 7.077-20.211 0-2.333-0.247-4.608-0.715-6.801l0.038 0.212zM736 512c-0.052 123.672-100.32 223.908-224 223.908-123.712 0-224-100.288-224-224 0-29.18 5.58-57.058 15.73-82.623l-0.53 1.515c1.316-3.368 2.079-7.268 2.079-11.346 0-13.529-8.396-25.098-20.262-29.779l-0.217-0.075c-3.39-1.517-7.347-2.4-11.51-2.4-0.032 0-0.063 0-0.095 0h0.005c-13.41 0.097-24.851 8.428-29.524 20.184l-0.076 0.216c-12.405 30.564-19.603 66.017-19.603 103.152 0 0.439 0.001 0.877 0.003 1.316v-0.068c0 159.058 128.942 288 288 288s288-128.942 288-288v0c0.001-0.281 0.002-0.614 0.002-0.947 0-37.238-7.197-72.794-20.276-105.355l0.675 1.902c-5.043-11.449-16.29-19.297-29.371-19.297-17.673 0-32 14.327-32 32 0 3.76 0.649 7.369 1.84 10.721l-0.069-0.224c9.613 24.080 15.192 51.987 15.2 81.197v0.003zM928 512c0-0.141 0-0.309 0-0.477 0-146.52-75.821-275.33-190.368-349.336l-1.632-0.988c-4.929-2.927-10.847-4.697-17.171-4.8h-0.029c-0.034 0-0.074 0-0.114 0-17.673 0-32 14.327-32 32 0 11.169 5.722 21.001 14.395 26.726l0.12 0.074c98.503 63.5 162.8 172.656 162.8 296.829 0 194.404-157.596 352-352 352s-352-157.596-352-352c0-124.173 64.297-233.329 161.414-295.991l1.386-0.838c8.912-5.807 14.721-15.725 14.721-27 0-17.74-14.381-32.121-32.121-32.121-6.465 0-12.484 1.91-17.524 5.197l0.124-0.076c-116.186 75.083-192 203.959-192 350.542 0 229.75 186.25 416 416 416 229.66 0 415.853-186.103 416-415.728v-0.014z" />
<glyph unicode="&#xf24f;" glyph-name="archive" data-tags="archive" d="M896 832h-768c-35.346 0-64-28.654-64-64v0-96c0-35.346 28.654-64 64-64v0-352c0-35.346 28.654-64 64-64v0h640c35.346 0 64 28.654 64 64v0 352c35.346 0 64 28.654 64 64v0 96c0 35.346-28.654 64-64 64v0zM832 256h-640v352h640zM896 672h-768v96h768v-96zM384 480c0 17.673 14.327 32 32 32v0h192c17.673 0 32-14.327 32-32s-14.327-32-32-32v0h-192c-17.673 0-32 14.327-32 32v0z" />
<glyph unicode="&#xf250;" glyph-name="archive-box" data-tags="archive-box" d="M892.8 750.4l-64 128c-5.556 10.466-16.345 17.496-28.786 17.6h-576.014c-12.455-0.104-23.244-7.134-28.714-17.423l-0.086-0.177-64-128c-1.961-4.227-3.133-9.169-3.2-14.376v-544.024c0-35.346 28.654-64 64-64v0h640c35.346 0 64 28.654 64 64v0 544c-0.067 5.231-1.239 10.173-3.292 14.623l0.092-0.223zM243.6 832h536.8l32-64h-600.8zM832 192h-640v512h640v-512zM670.4 446.4c5.775-5.788 9.345-13.777 9.345-22.6s-3.571-16.812-9.346-22.601l-135.599-135.999c-5.894-5.705-13.936-9.22-22.8-9.22s-16.906 3.516-22.809 9.229l0.009-0.009-135.6 136c-5.14 5.656-8.286 13.204-8.286 21.486 0 17.673 14.327 32 32 32 8.283 0 15.83-3.147 21.513-8.31l-0.026 0.024 81.2-81.2v242.8c0 17.673 14.327 32 32 32s32-14.327 32-32v0-242.8l81.2 81.2c5.788 5.775 13.777 9.345 22.6 9.345s16.812-3.571 22.601-9.346l-0.001 0.001z" />
<glyph unicode="&#xf251;" glyph-name="archive-tray" data-tags="archive-tray" d="M832 896h-640c-35.346 0-64-28.654-64-64v0-640c0-35.346 28.654-64 64-64v0h640c35.346 0 64 28.654 64 64v0 640c0 35.346-28.654 64-64 64v0zM832 832v-416h-114.8c-0.017 0-0.037 0-0.057 0-17.648 0-33.617-7.188-45.14-18.796l-77.204-77.204h-165.6l-77.2 77.2c-11.526 11.612-27.495 18.8-45.143 18.8-0.020 0-0.040 0-0.060 0h-114.797v416zM832 192h-640v160h114.8l77.2-77.2c11.526-11.612 27.495-18.8 45.143-18.8 0.020 0 0.040 0 0.060 0h165.597c0.017 0 0.037 0 0.057 0 17.648 0 33.617 7.188 45.14 18.796l77.204 77.204h114.8v-160zM353.6 529.2c-5.14 5.656-8.286 13.204-8.286 21.486 0 17.673 14.327 32 32 32 8.283 0 15.83-3.147 21.513-8.31l-0.026 0.024 81.2-81.2v242.8c0 17.673 14.327 32 32 32s32-14.327 32-32v0-242.8l81.2 81.2c5.656 5.14 13.204 8.286 21.486 8.286 17.673 0 32-14.327 32-32 0-8.283-3.147-15.83-8.31-21.513l0.024 0.026-135.6-136h-0.8l-1.6-1.6h-0.8l-2-1.2c0-0.4-0.4-0.4-0.4-0.8l-2-1.2h-0.8l-2-1.2h-0.4l-2.8-1.2h-18.4l-2.8 1.2h-0.4l-2 1.2h-0.8l-2 1.2c0 0.4-0.4 0.4-0.4 0.8l-2 1.2h-0.8l-1.6 1.6h-0.8z" />
<glyph unicode="&#xf252;" glyph-name="armchair" data-tags="armchair" d="M864 668.8v67.2c0 88.366-71.634 160-160 160v0h-384c-88.366 0-160-71.634-160-160v0-67.2c-73.633-15.344-128.16-79.704-128.16-156.8s54.527-141.456 127.12-156.618l1.040-0.182v-131.2c0-35.346 28.654-64 64-64v0h576c35.346 0 64 28.654 64 64v0 131.2c73.633 15.344 128.16 79.704 128.16 156.8s-54.527 141.456-127.12 156.618l-1.040 0.182zM320 832h384c52.928-0.226 95.774-43.072 96-95.978v-67.222c-73.483-15.552-127.855-79.805-128-156.784v-0.016h-320c-0.145 76.995-54.517 141.248-126.951 156.614l-1.049 0.186v67.2c0.226 52.928 43.072 95.774 95.978 96h0.022zM833.6 416h-1.6c-17.673 0-32-14.327-32-32v0-160h-576v160c0 0.001 0 0.002 0 0.003 0 17.452-14.148 31.6-31.6 31.6-0.141 0-0.281-0.001-0.421-0.003h-1.579c-52.326 0.9-94.399 43.53-94.399 95.987 0 53.019 42.981 96 96 96 52.874 0 95.764-42.745 95.999-95.564v-160.022c0-17.673 14.327-32 32-32s32 14.327 32 32v0 96h320v-96c0-17.673 14.327-32 32-32s32 14.327 32 32v0 160c0.008 53.014 42.985 95.987 96 95.987 53.019 0 96-42.981 96-96 0-52.457-42.073-95.087-94.316-95.986l-0.084-0.001z" />
<glyph unicode="&#xf253;" glyph-name="arrow-arc-left" data-tags="arrow-arc-left" d="M928 288c0-17.673-14.327-32-32-32s-32 14.327-32 32v0c-0.116 194.317-157.667 351.797-352 351.797-97.152 0-185.111-39.358-248.803-102.999l0.003 0.003-73.6-73.2h178.8c17.673 0 32-14.327 32-32s-14.327-32-32-32v0h-256c-17.673 0-32 14.327-32 32v0 256c0 17.673 14.327 32 32 32s32-14.327 32-32v0-178.8l73.6 73.2c75.177 75.381 179.142 122.019 294 122.019s218.823-46.638 293.991-122.010l0.009-0.009c75.349-74.626 122.003-178.108 122.003-292.486 0-0.532-0.001-1.065-0.003-1.597v0.083z" />
<glyph unicode="&#xf254;" glyph-name="arrow-arc-right" data-tags="arrow-arc-right" d="M943.6 687.6v-256c0-17.673-14.327-32-32-32v0h-256c-17.673 0-32 14.327-32 32s14.327 32 32 32v0h178.8l-73.6 73.2c-63.689 63.639-151.648 102.997-248.8 102.997-194.333 0-351.884-157.48-352-351.786v-0.011c0-17.673-14.327-32-32-32s-32 14.327-32 32v0c0.228 229.659 186.341 415.772 415.978 416h0.022c0.449 0.002 0.982 0.003 1.514 0.003 114.378 0 217.86-46.654 292.453-121.97l0.032-0.033 73.6-73.2v178.8c0 17.673 14.327 32 32 32s32-14.327 32-32v0z" />
<glyph unicode="&#xf255;" glyph-name="arrow-bend-double-up-left" data-tags="arrow-bend-double-up-left" d="M342.8 438.8c5.798-5.852 9.38-13.908 9.38-22.8s-3.582-16.948-9.382-22.802l0.002 0.002c-5.894-5.705-13.936-9.22-22.8-9.22s-16.906 3.516-22.809 9.229l-191.991 191.991c-5.798 5.852-9.38 13.908-9.38 22.8s3.582 16.948 9.382 22.802l191.998 191.998c5.546 4.578 12.726 7.355 20.555 7.355 17.894 0 32.4-14.506 32.4-32.4 0-7.829-2.777-15.009-7.399-20.61l0.044 0.055-169.6-169.2zM512 640h-114.8l137.6 137.2c7.255 5.987 11.845 14.98 11.845 25.045 0 17.894-14.506 32.4-32.4 32.4-10.065 0-19.058-4.59-25.001-11.79l-0.044-0.055-192-192c-5.798-5.852-9.38-13.908-9.38-22.8s3.582-16.948 9.382-22.802l191.998-191.998c5.894-5.705 13.936-9.22 22.8-9.22s16.906 3.516 22.809 9.229l-0.009-0.009c5.798 5.852 9.38 13.908 9.38 22.8s-3.582 16.948-9.382 22.802l0.002-0.002-137.6 137.2h114.8c194.313-0.228 351.772-157.687 352-351.978v-0.022c0-17.673 14.327-32 32-32s32 14.327 32 32v0c-0.454 229.568-186.433 415.546-415.957 416h-0.043z" />
<glyph unicode="&#xf256;" glyph-name="arrow-bend-double-up-right" data-tags="arrow-bend-double-up-right" d="M918.8 585.2l-192-192c-5.894-5.705-13.936-9.22-22.8-9.22s-16.906 3.516-22.809 9.229l0.009-0.009c-5.798 5.852-9.38 13.908-9.38 22.8s3.582 16.948 9.382 22.802l-0.002-0.002 169.6 169.2-169.6 169.2c-4.578 5.546-7.355 12.726-7.355 20.555 0 17.894 14.506 32.4 32.4 32.4 7.829 0 15.009-2.777 20.61-7.399l-0.055 0.044 192-192c5.798-5.852 9.38-13.908 9.38-22.8s-3.582-16.948-9.382-22.802l0.002 0.002zM726.8 630.8l-192 192c-5.546 4.578-12.726 7.355-20.555 7.355-17.894 0-32.4-14.506-32.4-32.4 0-7.829 2.777-15.009 7.399-20.61l-0.044 0.055 137.6-137.2h-114.8c-229.568-0.454-415.546-186.433-416-415.957v-0.043c0-17.673 14.327-32 32-32s32 14.327 32 32v0c0.228 194.313 157.687 351.772 351.978 352h114.822l-137.6-137.2c-5.798-5.852-9.38-13.908-9.38-22.8s3.582-16.948 9.382-22.802l-0.002 0.002c5.894-5.705 13.936-9.22 22.8-9.22s16.906 3.516 22.809 9.229l191.991 191.991c5.798 5.852 9.38 13.908 9.38 22.8s-3.582 16.948-9.382 22.802l0.002-0.002z" />
<glyph unicode="&#xf257;" glyph-name="arrow-bend-down-left" data-tags="arrow-bend-down-left" d="M928 800c-0.454-229.568-186.433-415.546-415.957-416h-306.843l137.6-137.2c5.798-5.852 9.38-13.908 9.38-22.8s-3.582-16.948-9.382-22.802l0.002 0.002c-5.894-5.705-13.936-9.22-22.8-9.22s-16.906 3.516-22.809 9.229l-191.991 191.991c-5.798 5.852-9.38 13.908-9.38 22.8s3.582 16.948 9.382 22.802l191.998 191.998c5.546 4.578 12.726 7.355 20.555 7.355 17.894 0 32.4-14.506 32.4-32.4 0-7.829-2.777-15.009-7.399-20.61l0.044 0.055-137.6-137.2h306.8c194.313 0.228 351.772 157.687 352 351.978v0.022c0 17.673 14.327 32 32 32s32-14.327 32-32v0z" />
<glyph unicode="&#xf258;" glyph-name="arrow-bend-down-right" data-tags="arrow-bend-down-right" d="M918.8 393.2l-192-192c-5.894-5.705-13.936-9.22-22.8-9.22s-16.906 3.516-22.809 9.229l0.009-0.009c-5.798 5.852-9.38 13.908-9.38 22.8s3.582 16.948 9.382 22.802l-0.002-0.002 137.6 137.2h-306.8c-229.568 0.454-415.546 186.433-416 415.957v0.043c0 17.673 14.327 32 32 32s32-14.327 32-32v0c0.228-194.313 157.687-351.772 351.978-352h306.822l-137.6 137.2c-4.578 5.546-7.355 12.726-7.355 20.555 0 17.894 14.506 32.4 32.4 32.4 7.829 0 15.009-2.777 20.61-7.399l-0.055 0.044 192-192c5.798-5.852 9.38-13.908 9.38-22.8s-3.582-16.948-9.382-22.802l0.002 0.002z" />
<glyph unicode="&#xf259;" glyph-name="arrow-bend-left-down" data-tags="arrow-bend-left-down" d="M832 896c0-17.673-14.327-32-32-32v0c-194.313-0.228-351.772-157.687-352-351.978v-306.822l137.2 137.6c5.546 4.578 12.726 7.355 20.555 7.355 17.894 0 32.4-14.506 32.4-32.4 0-7.829-2.777-15.009-7.399-20.61l0.044 0.055-192-192c-5.894-5.705-13.936-9.22-22.8-9.22s-16.906 3.516-22.809 9.229l-191.991 191.991c-4.578 5.546-7.355 12.726-7.355 20.555 0 17.894 14.506 32.4 32.4 32.4 7.829 0 15.009-2.777 20.61-7.399l-0.055 0.044 137.2-137.6v306.8c0.454 229.568 186.433 415.546 415.957 416h0.043c17.673 0 32-14.327 32-32v0z" />
<glyph unicode="&#xf25a;" glyph-name="arrow-bend-left-up" data-tags="arrow-bend-left-up" d="M832 128c0-17.673-14.327-32-32-32v0c-229.568 0.454-415.546 186.433-416 415.957v306.843l-137.2-137.6c-5.546-4.578-12.726-7.355-20.555-7.355-17.894 0-32.4 14.506-32.4 32.4 0 7.829 2.777 15.009 7.399 20.61l-0.044-0.055 192 192c5.852 5.798 13.908 9.38 22.8 9.38s16.948-3.582 22.802-9.382l191.998-191.998c5.798-5.852 9.38-13.908 9.38-22.8s-3.582-16.948-9.382-22.802l0.002 0.002c-5.894-5.705-13.936-9.22-22.8-9.22s-16.906 3.516-22.809 9.229l0.009-0.009-137.2 137.6v-306.8c0.228-194.313 157.687-351.772 351.978-352h0.022c17.673 0 32-14.327 32-32v0z" />
<glyph unicode="&#xf25b;" glyph-name="arrow-bend-right-down" data-tags="arrow-bend-right-down" d="M822.8 297.2l-192-192c-5.894-5.705-13.936-9.22-22.8-9.22s-16.906 3.516-22.809 9.229l-191.991 191.991c-4.578 5.546-7.355 12.726-7.355 20.555 0 17.894 14.506 32.4 32.4 32.4 7.829 0 15.009-2.777 20.61-7.399l-0.055 0.044 137.2-137.6v306.8c-0.228 194.313-157.687 351.772-351.978 352h-0.022c-17.673 0-32 14.327-32 32s14.327 32 32 32v0c229.568-0.454 415.546-186.433 416-415.957v-306.843l137.2 137.6c5.546 4.578 12.726 7.355 20.555 7.355 17.894 0 32.4-14.506 32.4-32.4 0-7.829-2.777-15.009-7.399-20.61l0.044 0.055z" />
<glyph unicode="&#xf25c;" glyph-name="arrow-bend-right-up" data-tags="arrow-bend-right-up" d="M822.8 681.2c-5.894-5.705-13.936-9.22-22.8-9.22s-16.906 3.516-22.809 9.229l0.009-0.009-137.2 137.6v-306.8c-0.454-229.568-186.433-415.546-415.957-416h-0.043c-17.673 0-32 14.327-32 32s14.327 32 32 32v0c194.313 0.228 351.772 157.687 352 351.978v306.822l-137.2-137.6c-5.546-4.578-12.726-7.355-20.555-7.355-17.894 0-32.4 14.506-32.4 32.4 0 7.829 2.777 15.009 7.399 20.61l-0.044-0.055 192 192c5.852 5.798 13.908 9.38 22.8 9.38s16.948-3.582 22.802-9.382l191.998-191.998c5.798-5.852 9.38-13.908 9.38-22.8s-3.582-16.948-9.382-22.802l0.002 0.002z" />
<glyph unicode="&#xf25d;" glyph-name="arrow-bend-up-left" data-tags="arrow-bend-up-left" d="M928 224c0-17.673-14.327-32-32-32s-32 14.327-32 32v0c-0.228 194.313-157.687 351.772-351.978 352h-306.822l137.6-137.2c5.798-5.852 9.38-13.908 9.38-22.8s-3.582-16.948-9.382-22.802l0.002 0.002c-5.894-5.705-13.936-9.22-22.8-9.22s-16.906 3.516-22.809 9.229l-191.991 191.991c-5.798 5.852-9.38 13.908-9.38 22.8s3.582 16.948 9.382 22.802l191.998 191.998c5.546 4.578 12.726 7.355 20.555 7.355 17.894 0 32.4-14.506 32.4-32.4 0-7.829-2.777-15.009-7.399-20.61l0.044 0.055-137.6-137.2h306.8c229.568-0.454 415.546-186.433 416-415.957v-0.043z" />
<glyph unicode="&#xf25e;" glyph-name="arrow-bend-up-right" data-tags="arrow-bend-up-right" d="M918.8 585.2l-192-192c-5.894-5.705-13.936-9.22-22.8-9.22s-16.906 3.516-22.809 9.229l0.009-0.009c-5.798 5.852-9.38 13.908-9.38 22.8s3.582 16.948 9.382 22.802l-0.002-0.002 137.6 137.2h-306.8c-194.313-0.228-351.772-157.687-352-351.978v-0.022c0-17.673-14.327-32-32-32s-32 14.327-32 32v0c0.454 229.568 186.433 415.546 415.957 416h306.843l-137.6 137.2c-4.578 5.546-7.355 12.726-7.355 20.555 0 17.894 14.506 32.4 32.4 32.4 7.829 0 15.009-2.777 20.61-7.399l-0.055 0.044 192-192c5.798-5.852 9.38-13.908 9.38-22.8s-3.582-16.948-9.382-22.802l0.002 0.002z" />
<glyph unicode="&#xf25f;" glyph-name="arrow-circle-down" data-tags="arrow-circle-down" d="M512 928c-229.75 0-416-186.25-416-416s186.25-416 416-416c229.75 0 416 186.25 416 416v0c-0.454 229.568-186.433 415.546-415.957 416h-0.043zM512 160c-194.404 0-352 157.596-352 352s157.596 352 352 352c194.404 0 352-157.596 352-352v0c-0.228-194.313-157.687-351.772-351.978-352h-0.022zM670.4 510.4c5.775-5.788 9.345-13.777 9.345-22.6s-3.571-16.812-9.346-22.601l-135.599-135.999c-5.894-5.705-13.936-9.22-22.8-9.22s-16.906 3.516-22.809 9.229l0.009-0.009-135.6 136c-5.14 5.656-8.286 13.204-8.286 21.486 0 17.673 14.327 32 32 32 8.283 0 15.83-3.147 21.513-8.31l-0.026 0.024 81.2-81.2v242.8c0 17.673 14.327 32 32 32s32-14.327 32-32v0-242.8l81.2 81.2c5.788 5.775 13.777 9.345 22.6 9.345s16.812-3.571 22.601-9.346l-0.001 0.001z" />
<glyph unicode="&#xf260;" glyph-name="arrow-circle-down-left" data-tags="arrow-circle-down-left" d="M512 928c-229.75 0-416-186.25-416-416s186.25-416 416-416c229.75 0 416 186.25 416 416v0c-0.454 229.568-186.433 415.546-415.957 416h-0.043zM512 160c-194.404 0-352 157.596-352 352s157.596 352 352 352c194.404 0 352-157.596 352-352v0c-0.228-194.313-157.687-351.772-351.978-352h-0.022zM646.8 646.8c5.798-5.852 9.38-13.908 9.38-22.8s-3.582-16.948-9.382-22.802l0.002 0.002-169.6-169.2h114.8c17.673 0 32-14.327 32-32s-14.327-32-32-32v0h-192c-17.673 0-32 14.327-32 32v0 192c0 17.673 14.327 32 32 32s32-14.327 32-32v0-114.8l169.2 169.6c5.852 5.798 13.908 9.38 22.8 9.38s16.948-3.582 22.802-9.382l-0.002 0.002z" />
<glyph unicode="&#xf261;" glyph-name="arrow-circle-down-right" data-tags="arrow-circle-down-right" d="M806 806c-75.297 75.374-179.36 122-294.313 122-229.75 0-416-186.25-416-416s186.25-416 416-416c114.953 0 219.016 46.625 294.309 121.996l0.004 0.004c75.284 75.221 121.853 179.172 121.853 294s-46.568 218.778-121.85 293.997l-0.003 0.003zM760.8 263.2c-63.709-63.76-151.75-103.2-249.003-103.2-194.404 0-352 157.596-352 352s157.596 352 352 352c97.253 0 185.294-39.44 249.001-103.198l0.002-0.002c63.543-63.733 102.832-151.678 102.832-248.8s-39.289-185.066-102.84-248.808l0.008 0.008zM656 592v-192c0-17.673-14.327-32-32-32v0h-192c-17.673 0-32 14.327-32 32s14.327 32 32 32v0h114.8l-169.6 169.2c-4.578 5.546-7.355 12.726-7.355 20.555 0 17.894 14.506 32.4 32.4 32.4 7.829 0 15.009-2.777 20.61-7.399l-0.055 0.044 169.2-169.6v114.8c0 17.673 14.327 32 32 32s32-14.327 32-32v0z" />
<glyph unicode="&#xf262;" glyph-name="arrow-circle-left" data-tags="arrow-circle-left" d="M512 928c-229.75 0-416-186.25-416-416s186.25-416 416-416c229.75 0 416 186.25 416 416v0c-0.454 229.568-186.433 415.546-415.957 416h-0.043zM512 160c-194.404 0-352 157.596-352 352s157.596 352 352 352c194.404 0 352-157.596 352-352v0c-0.228-194.313-157.687-351.772-351.978-352h-0.022zM704 512c0-17.673-14.327-32-32-32v0h-242.8l81.2-81.2c5.775-5.788 9.345-13.777 9.345-22.6s-3.571-16.812-9.346-22.601l0.001 0.001c-5.653-5.687-13.481-9.207-22.13-9.207-0.235 0-0.47 0.003-0.704 0.008l0.035-0.001c-0.18-0.004-0.393-0.006-0.606-0.006-8.544 0-16.265 3.525-21.787 9.199l-0.007 0.007-136 135.6c-5.798 5.852-9.38 13.908-9.38 22.8s3.582 16.948 9.382 22.802l-0.002-0.002 136 135.6c5.656 5.14 13.204 8.286 21.486 8.286 17.673 0 32-14.327 32-32 0-8.283-3.147-15.83-8.31-21.513l0.024 0.026-81.2-81.2h242.8c17.673 0 32-14.327 32-32v0z" />
<glyph unicode="&#xf263;" glyph-name="arrow-circle-right" data-tags="arrow-circle-right" d="M512 928c-229.75 0-416-186.25-416-416s186.25-416 416-416c229.75 0 416 186.25 416 416v0c-0.454 229.568-186.433 415.546-415.957 416h-0.043zM512 160c-194.404 0-352 157.596-352 352s157.596 352 352 352c194.404 0 352-157.596 352-352v0c-0.228-194.313-157.687-351.772-351.978-352h-0.022zM694.8 534.8c5.798-5.852 9.38-13.908 9.38-22.8s-3.582-16.948-9.382-22.802l0.002 0.002-136-135.6c-5.529-5.681-13.25-9.206-21.794-9.206-0.213 0-0.426 0.002-0.638 0.007l0.032-0.001c-0.199-0.005-0.434-0.007-0.67-0.007-8.65 0-16.478 3.52-22.129 9.206l-0.002 0.002c-5.775 5.788-9.345 13.777-9.345 22.6s3.571 16.812 9.346 22.601l81.199 81.199h-242.8c-17.673 0-32 14.327-32 32s14.327 32 32 32v0h242.8l-81.2 81.2c-5.14 5.656-8.286 13.204-8.286 21.486 0 17.673 14.327 32 32 32 8.283 0 15.83-3.147 21.513-8.31l-0.026 0.024z" />
<glyph unicode="&#xf264;" glyph-name="arrow-circle-up" data-tags="arrow-circle-up" d="M512 928c-229.75 0-416-186.25-416-416s186.25-416 416-416c229.75 0 416 186.25 416 416v0c-0.454 229.568-186.433 415.546-415.957 416h-0.043zM512 160c-194.404 0-352 157.596-352 352s157.596 352 352 352c194.404 0 352-157.596 352-352v0c-0.228-194.313-157.687-351.772-351.978-352h-0.022zM670.4 558.8c5.775-5.788 9.345-13.777 9.345-22.6s-3.571-16.812-9.346-22.601l0.001 0.001c-5.653-5.687-13.481-9.207-22.13-9.207-0.235 0-0.47 0.003-0.704 0.008l0.035-0.001c-0.18-0.004-0.393-0.006-0.606-0.006-8.544 0-16.265 3.525-21.787 9.199l-81.207 81.207v-242.8c0-17.673-14.327-32-32-32s-32 14.327-32 32v0 242.8l-81.2-81.2c-5.656-5.14-13.204-8.286-21.486-8.286-17.673 0-32 14.327-32 32 0 8.283 3.147 15.83 8.31 21.513l-0.024-0.026 135.6 136c5.894 5.705 13.936 9.22 22.8 9.22s16.906-3.516 22.809-9.229l-0.009 0.009z" />
<glyph unicode="&#xf265;" glyph-name="arrow-circle-up-left" data-tags="arrow-circle-up-left" d="M512 928c-229.75 0-416-186.25-416-416s186.25-416 416-416c229.75 0 416 186.25 416 416v0c-0.454 229.568-186.433 415.546-415.957 416h-0.043zM512 160c-194.404 0-352 157.596-352 352s157.596 352 352 352c194.404 0 352-157.596 352-352v0c-0.228-194.313-157.687-351.772-351.978-352h-0.022zM646.8 422.8c5.798-5.852 9.38-13.908 9.38-22.8s-3.582-16.948-9.382-22.802l0.002 0.002c-5.894-5.705-13.936-9.22-22.8-9.22s-16.906 3.516-22.809 9.229l0.009-0.009-169.2 169.6v-114.8c0-17.673-14.327-32-32-32s-32 14.327-32 32v0 192c0 17.673 14.327 32 32 32v0h192c17.673 0 32-14.327 32-32s-14.327-32-32-32v0h-114.8z" />
<glyph unicode="&#xf266;" glyph-name="arrow-circle-up-right" data-tags="arrow-circle-up-right" d="M512 928c-229.75 0-416-186.25-416-416s186.25-416 416-416c229.75 0 416 186.25 416 416v0c-0.454 229.568-186.433 415.546-415.957 416h-0.043zM512 160c-194.404 0-352 157.596-352 352s157.596 352 352 352c194.404 0 352-157.596 352-352v0c-0.228-194.313-157.687-351.772-351.978-352h-0.022zM656 624v-192c0-17.673-14.327-32-32-32s-32 14.327-32 32v0 114.8l-169.2-169.6c-5.894-5.705-13.936-9.22-22.8-9.22s-16.906 3.516-22.809 9.229l0.009-0.009c-5.798 5.852-9.38 13.908-9.38 22.8s3.582 16.948 9.382 22.802l-0.002-0.002 169.6 169.2h-114.8c-17.673 0-32 14.327-32 32s14.327 32 32 32v0h192c17.673 0 32-14.327 32-32v0z" />
<glyph unicode="&#xf267;" glyph-name="arrow-clockwise" data-tags="arrow-clockwise" d="M928.8 817.2v-192c0-17.673-14.327-32-32-32v0h-192c-17.673 0-32 14.327-32 32s14.327 32 32 32v0h114.8l-81.2 81.2c-57.896 57.834-137.845 93.6-226.148 93.6-176.731 0-320-143.269-320-320s143.269-320 320-320c88.303 0 168.252 35.767 226.151 93.603l-0.003-0.003c5.743 5.873 13.746 9.514 22.6 9.514s16.857-3.641 22.594-9.508l0.006-0.006c5.775-5.788 9.345-13.777 9.345-22.6s-3.571-16.812-9.346-22.601l0.001 0.001c-69.483-69.448-165.455-112.4-271.458-112.4-212.077 0-384 171.923-384 384s171.923 384 384 384c106.003 0 201.975-42.952 271.46-112.402l81.198-81.198v114.8c0 17.673 14.327 32 32 32s32-14.327 32-32v0z" />
<glyph unicode="&#xf268;" glyph-name="arrow-counter-clockwise" data-tags="arrow-counter-clockwise" d="M783.6 240.4c-69.541-69.436-165.556-112.376-271.6-112.376s-202.058 42.94-271.604 112.381l0.004-0.004c-5.775 5.788-9.345 13.777-9.345 22.6s3.571 16.812 9.346 22.601l-0.001-0.001c5.743 5.873 13.746 9.514 22.6 9.514s16.857-3.641 22.594-9.508l0.006-0.006c57.896-57.834 137.845-93.6 226.148-93.6 176.731 0 320 143.269 320 320s-143.269 320-320 320c-88.303 0-168.252-35.767-226.151-93.603l-81.197-81.197h114.8c17.673 0 32-14.327 32-32s-14.327-32-32-32v0h-192c-17.673 0-32 14.327-32 32v0 192c0 17.673 14.327 32 32 32s32-14.327 32-32v-114.8l81.2 81.2c69.508 69.508 165.534 112.5 271.6 112.5 212.133 0 384.1-171.968 384.1-384.1 0-106.066-42.992-202.091-112.5-271.6v0z" />
<glyph unicode="&#xf269;" glyph-name="arrow-down" data-tags="arrow-down" d="M822.8 425.2l-288-288c-5.894-5.705-13.936-9.22-22.8-9.22s-16.906 3.516-22.809 9.229l-287.991 287.991c-4.578 5.546-7.355 12.726-7.355 20.555 0 17.894 14.506 32.4 32.4 32.4 7.829 0 15.009-2.777 20.61-7.399l-0.055 0.044 233.2-233.6v626.8c0 17.673 14.327 32 32 32s32-14.327 32-32v0-626.8l233.2 233.6c5.546 4.578 12.726 7.355 20.555 7.355 17.894 0 32.4-14.506 32.4-32.4 0-7.829-2.777-15.009-7.399-20.61l0.044 0.055z" />
<glyph unicode="&#xf26a;" glyph-name="arrow-down-left" data-tags="arrow-down-left" d="M790.8 745.2l-457.6-457.2h338.8c17.673 0 32-14.327 32-32s-14.327-32-32-32v0h-416c-17.673 0-32 14.327-32 32v0 416c0 17.673 14.327 32 32 32s32-14.327 32-32v0-338.8l457.2 457.6c5.546 4.578 12.726 7.355 20.555 7.355 17.894 0 32.4-14.506 32.4-32.4 0-7.829-2.777-15.009-7.399-20.61l0.044 0.055z" />
<glyph unicode="&#xf26b;" glyph-name="arrow-down-right" data-tags="arrow-down-right" d="M800 672v-416c0-17.673-14.327-32-32-32v0h-416c-17.673 0-32 14.327-32 32s14.327 32 32 32v0h338.8l-457.6 457.2c-4.578 5.546-7.355 12.726-7.355 20.555 0 17.894 14.506 32.4 32.4 32.4 7.829 0 15.009-2.777 20.61-7.399l-0.055 0.044 457.2-457.6v338.8c0 17.673 14.327 32 32 32s32-14.327 32-32v0z" />
<glyph unicode="&#xf26c;" glyph-name="arrow-elbow-down-left" data-tags="arrow-elbow-down-left" d="M800 896v-576c0-17.673-14.327-32-32-32v0h-498.8l137.6-137.2c5.798-5.852 9.38-13.908 9.38-22.8s-3.582-16.948-9.382-22.802l0.002 0.002c-5.894-5.705-13.936-9.22-22.8-9.22s-16.906 3.516-22.809 9.229l-191.991 191.991c-5.798 5.852-9.38 13.908-9.38 22.8s3.582 16.948 9.382 22.802l191.998 191.998c5.546 4.578 12.726 7.355 20.555 7.355 17.894 0 32.4-14.506 32.4-32.4 0-7.829-2.777-15.009-7.399-20.61l0.044 0.055-137.6-137.2h466.8v544c0 17.673 14.327 32 32 32s32-14.327 32-32v0z" />
<glyph unicode="&#xf26d;" glyph-name="arrow-elbow-down-right" data-tags="arrow-elbow-down-right" d="M854.8 297.2l-192-192c-5.894-5.705-13.936-9.22-22.8-9.22s-16.906 3.516-22.809 9.229l0.009-0.009c-5.798 5.852-9.38 13.908-9.38 22.8s3.582 16.948 9.382 22.802l-0.002-0.002 137.6 137.2h-498.8c-17.673 0-32 14.327-32 32v0 576c0 17.673 14.327 32 32 32s32-14.327 32-32v0-544h466.8l-137.6 137.2c-4.578 5.546-7.355 12.726-7.355 20.555 0 17.894 14.506 32.4 32.4 32.4 7.829 0 15.009-2.777 20.61-7.399l-0.055 0.044 192-192c5.798-5.852 9.38-13.908 9.38-22.8s-3.582-16.948-9.382-22.802l0.002 0.002z" />
<glyph unicode="&#xf26e;" glyph-name="arrow-elbow-left" data-tags="arrow-elbow-left" d="M950.8 617.2l-384-384c-5.894-5.705-13.936-9.22-22.8-9.22s-16.906 3.516-22.809 9.229l0.009-0.009-393.2 393.6v-210.8c0-17.673-14.327-32-32-32s-32 14.327-32 32v0 288c0 17.673 14.327 32 32 32v0h288c17.673 0 32-14.327 32-32s-14.327-32-32-32v0h-210.8l370.8-370.8 361.2 361.6c5.546 4.578 12.726 7.355 20.555 7.355 17.894 0 32.4-14.506 32.4-32.4 0-7.829-2.777-15.009-7.399-20.61l0.044 0.055z" />
<glyph unicode="&#xf26f;" glyph-name="arrow-elbow-left-down" data-tags="arrow-elbow-left-down" d="M928 768c0-17.673-14.327-32-32-32v0h-544v-466.8l137.2 137.6c5.987 7.255 14.98 11.845 25.045 11.845 17.894 0 32.4-14.506 32.4-32.4 0-10.065-4.59-19.058-11.79-25.001l-0.055-0.044-192-192c-5.894-5.705-13.936-9.22-22.8-9.22s-16.906 3.516-22.809 9.229l-191.991 191.991c-4.578 5.546-7.355 12.726-7.355 20.555 0 17.894 14.506 32.4 32.4 32.4 7.829 0 15.009-2.777 20.61-7.399l-0.055 0.044 137.2-137.6v498.8c0 17.673 14.327 32 32 32v0h576c17.673 0 32-14.327 32-32v0z" />
<glyph unicode="&#xf270;" glyph-name="arrow-elbow-left-up" data-tags="arrow-elbow-left-up" d="M928 256c0-17.673-14.327-32-32-32v0h-576c-17.673 0-32 14.327-32 32v0 498.8l-137.2-137.6c-5.546-4.578-12.726-7.355-20.555-7.355-17.894 0-32.4 14.506-32.4 32.4 0 7.829 2.777 15.009 7.399 20.61l-0.044-0.055 192 192c5.852 5.798 13.908 9.38 22.8 9.38s16.948-3.582 22.802-9.382l191.998-191.998c5.798-5.852 9.38-13.908 9.38-22.8s-3.582-16.948-9.382-22.802l0.002 0.002c-5.894-5.705-13.936-9.22-22.8-9.22s-16.906 3.516-22.809 9.229l0.009-0.009-137.2 137.6v-466.8h544c17.673 0 32-14.327 32-32v0z" />
<glyph unicode="&#xf271;" glyph-name="arrow-elbow-right" data-tags="arrow-elbow-right" d="M960 704v-288c0-17.673-14.327-32-32-32s-32 14.327-32 32v0 210.8l-393.2-393.6c-5.894-5.705-13.936-9.22-22.8-9.22s-16.906 3.516-22.809 9.229l-383.991 383.991c-4.578 5.546-7.355 12.726-7.355 20.555 0 17.894 14.506 32.4 32.4 32.4 7.829 0 15.009-2.777 20.61-7.399l-0.055 0.044 361.2-361.6 370.8 370.8h-210.8c-17.673 0-32 14.327-32 32s14.327 32 32 32v0h288c17.673 0 32-14.327 32-32v0z" />
<glyph unicode="&#xf272;" glyph-name="arrow-elbow-right-down" data-tags="arrow-elbow-right-down" d="M918.8 361.2l-192-192c-5.894-5.705-13.936-9.22-22.8-9.22s-16.906 3.516-22.809 9.229l-191.991 191.991c-4.578 5.546-7.355 12.726-7.355 20.555 0 17.894 14.506 32.4 32.4 32.4 7.829 0 15.009-2.777 20.61-7.399l-0.055 0.044 137.2-137.6v466.8h-544c-17.673 0-32 14.327-32 32s14.327 32 32 32v0h576c17.673 0 32-14.327 32-32v0-498.8l137.2 137.6c5.546 4.578 12.726 7.355 20.555 7.355 17.894 0 32.4-14.506 32.4-32.4 0-7.829-2.777-15.009-7.399-20.61l0.044 0.055z" />
<glyph unicode="&#xf273;" glyph-name="arrow-elbow-right-up" data-tags="arrow-elbow-right-up" d="M918.8 617.2c-5.894-5.705-13.936-9.22-22.8-9.22s-16.906 3.516-22.809 9.229l0.009-0.009-137.2 137.6v-498.8c0-17.673-14.327-32-32-32v0h-576c-17.673 0-32 14.327-32 32s14.327 32 32 32v0h544v466.8l-137.2-137.6c-5.546-4.578-12.726-7.355-20.555-7.355-17.894 0-32.4 14.506-32.4 32.4 0 7.829 2.777 15.009 7.399 20.61l-0.044-0.055 192 192c5.852 5.798 13.908 9.38 22.8 9.38s16.948-3.582 22.802-9.382l191.998-191.998c5.798-5.852 9.38-13.908 9.38-22.8s-3.582-16.948-9.382-22.802l0.002 0.002z" />
<glyph unicode="&#xf274;" glyph-name="arrow-elbow-up-left" data-tags="arrow-elbow-up-left" d="M800 704v-576c0-17.673-14.327-32-32-32s-32 14.327-32 32v0 544h-466.8l137.6-137.2c5.798-5.852 9.38-13.908 9.38-22.8s-3.582-16.948-9.382-22.802l0.002 0.002c-5.894-5.705-13.936-9.22-22.8-9.22s-16.906 3.516-22.809 9.229l-193.991 193.991-0.8 1.2-1.2 1.6c0 0.4-0.4 0.8-0.8 1.2l-0.8 1.2c0 0.8-0.4 1.2-0.4 1.6l-0.8 1.2c0 0.8-0.4 1.2-0.4 1.6l-0.8 1.6c0 0.015 0 0.032 0 0.050 0 0.569-0.148 1.103-0.409 1.566l0.008-0.016v1.2c-0.261 0.486-0.415 1.064-0.415 1.677 0 0.114 0.005 0.226 0.016 0.337l-0.001-0.014c0.004 0.041 0.006 0.088 0.006 0.135 0 0.41-0.154 0.783-0.407 1.066l0.001-0.002v6.8c0.252 0.281 0.406 0.655 0.406 1.065 0 0.048-0.002 0.095-0.006 0.141v-0.006c-0.009 0.097-0.015 0.209-0.015 0.323 0 0.613 0.153 1.191 0.424 1.696l-0.009-0.019v1.2c0.252 0.447 0.4 0.981 0.4 1.55 0 0.018 0 0.035 0 0.053v-0.003l0.8 1.6c0 0.4 0.4 0.8 0.4 1.6l0.8 1.2c0 0.4 0.4 0.8 0.4 1.6l0.8 1.2c0.4 0.4 0.8 0.8 0.8 1.2l1.2 1.6 0.8 1.2 194 194c5.987 7.255 14.98 11.845 25.045 11.845 17.894 0 32.4-14.506 32.4-32.4 0-10.065-4.59-19.058-11.79-25.001l-0.055-0.044-137.6-136.8h498.8c17.673 0 32-14.327 32-32v0z" />
<glyph unicode="&#xf275;" glyph-name="arrow-elbow-up-right" data-tags="arrow-elbow-up-right" d="M854.8 681.2l-192-192c-5.894-5.705-13.936-9.22-22.8-9.22s-16.906 3.516-22.809 9.229l0.009-0.009c-5.798 5.852-9.38 13.908-9.38 22.8s3.582 16.948 9.382 22.802l-0.002-0.002 137.6 137.2h-466.8v-544c0-17.673-14.327-32-32-32s-32 14.327-32 32v0 576c0 17.673 14.327 32 32 32v0h498.8l-137.6 137.2c-4.578 5.546-7.355 12.726-7.355 20.555 0 17.894 14.506 32.4 32.4 32.4 7.829 0 15.009-2.777 20.61-7.399l-0.055 0.044 192-192c5.798-5.852 9.38-13.908 9.38-22.8s-3.582-16.948-9.382-22.802l0.002 0.002z" />
<glyph unicode="&#xf276;" glyph-name="arrow-fat-down" data-tags="arrow-fat-down" d="M925.6 492.4c-4.973 11.612-16.304 19.6-29.5 19.6-0.035 0-0.070 0-0.106 0h-159.995v320c0 35.346-28.654 64-64 64v0h-320c-35.346 0-64-28.654-64-64v0-320h-160c-0.030 0-0.065 0-0.1 0-13.196 0-24.527-7.988-29.42-19.392l-0.079-0.208c-1.454-3.62-2.297-7.816-2.297-12.21 0-8.902 3.462-16.996 9.113-23.008l-0.016 0.018 384-384c5.894-5.705 13.936-9.22 22.8-9.22s16.906 3.516 22.809 9.229l383.991 383.991c5.635 5.995 9.097 14.088 9.097 22.99 0 4.393-0.843 8.59-2.377 12.436l0.080-0.227zM512 141.2l-306.8 306.8h114.8c17.673 0 32 14.327 32 32v0 352h320v-352c0-17.673 14.327-32 32-32v0h114.8z" />
<glyph unicode="&#xf277;" glyph-name="arrow-fat-left" data-tags="arrow-fat-left" d="M832 736h-320v160c0 0.030 0 0.065 0 0.1 0 13.196-7.988 24.527-19.392 29.42l-0.208 0.079c-3.62 1.454-7.816 2.297-12.21 2.297-8.902 0-16.996-3.462-23.008-9.113l0.018 0.016-384-384c-5.798-5.852-9.38-13.908-9.38-22.8s3.582-16.948 9.382-22.802l383.998-383.998c5.917-5.663 13.946-9.161 22.792-9.2h0.008c4.47 0.020 8.729 0.9 12.628 2.482l-0.228-0.082c11.612 4.973 19.6 16.304 19.6 29.5 0 0.035 0 0.070 0 0.106v-0.005 160h320c35.346 0 64 28.654 64 64v0 320c0 35.346-28.654 64-64 64v0zM832 352h-352c-17.673 0-32-14.327-32-32v0-114.8l-306.8 306.8 306.8 306.8v-114.8c0-17.673 14.327-32 32-32v0h352z" />
<glyph unicode="&#xf278;" glyph-name="arrow-fat-line-down" data-tags="arrow-fat-line-down" d="M925.6 492.4c-4.973 11.612-16.304 19.6-29.5 19.6-0.035 0-0.070 0-0.106 0h-159.995v224c0 17.673-14.327 32-32 32v0h-384c-17.673 0-32-14.327-32-32v0-224h-160c-0.030 0-0.065 0-0.1 0-13.196 0-24.527-7.988-29.42-19.392l-0.079-0.208c-1.454-3.62-2.297-7.816-2.297-12.21 0-8.902 3.462-16.996 9.113-23.008l-0.016 0.018 384-384c5.894-5.705 13.936-9.22 22.8-9.22s16.906 3.516 22.809 9.229l383.991 383.991c5.635 5.995 9.097 14.088 9.097 22.99 0 4.393-0.843 8.59-2.377 12.436l0.080-0.227zM512 141.2l-306.8 306.8h114.8c17.673 0 32 14.327 32 32v0 224h320v-224c0-17.673 14.327-32 32-32v0h114.8zM288 864c0 17.673 14.327 32 32 32v0h384c17.673 0 32-14.327 32-32s-14.327-32-32-32v0h-384c-17.673 0-32 14.327-32 32v0z" />
<glyph unicode="&#xf279;" glyph-name="arrow-fat-line-left" data-tags="arrow-fat-line-left" d="M736 736h-224v160c0 0.030 0 0.065 0 0.1 0 13.196-7.988 24.527-19.392 29.42l-0.208 0.079c-3.62 1.454-7.816 2.297-12.21 2.297-8.902 0-16.996-3.462-23.008-9.113l0.018 0.016-384-384c-5.798-5.852-9.38-13.908-9.38-22.8s3.582-16.948 9.382-22.802l383.998-383.998c5.917-5.663 13.946-9.161 22.792-9.2h0.008c4.47 0.020 8.729 0.9 12.628 2.482l-0.228-0.082c11.612 4.973 19.6 16.304 19.6 29.5 0 0.035 0 0.070 0 0.106v-0.005 160h224c17.673 0 32 14.327 32 32v0 384c0 17.673-14.327 32-32 32v0zM704 352h-224c-17.673 0-32-14.327-32-32v0-114.8l-306.8 306.8 306.8 306.8v-114.8c0-17.673 14.327-32 32-32v0h224zM896 704v-384c0-17.673-14.327-32-32-32s-32 14.327-32 32v0 384c0 17.673 14.327 32 32 32s32-14.327 32-32v0z" />
<glyph unicode="&#xf27a;" glyph-name="arrow-fat-line-right" data-tags="arrow-fat-line-right" d="M950.8 534.8l-384 384c-5.995 5.635-14.088 9.097-22.99 9.097-4.393 0-8.59-0.843-12.436-2.377l0.227 0.080c-11.612-4.973-19.6-16.304-19.6-29.5 0-0.035 0-0.070 0-0.106v0.005-160h-224c-17.673 0-32-14.327-32-32v0-384c0-17.673 14.327-32 32-32v0h224v-160c0-0.030 0-0.065 0-0.1 0-13.196 7.988-24.527 19.392-29.42l0.208-0.079c3.671-1.5 7.93-2.38 12.392-2.4h0.008c8.854 0.039 16.883 3.537 22.812 9.212l383.988 383.988c5.798 5.852 9.38 13.908 9.38 22.8s-3.582 16.948-9.382 22.802l0.002-0.002zM576 205.2v114.8c0 17.673-14.327 32-32 32v0h-224v320h224c17.673 0 32 14.327 32 32v0 114.8l306.8-306.8zM192 704v-384c0-17.673-14.327-32-32-32s-32 14.327-32 32v0 384c0 17.673 14.327 32 32 32s32-14.327 32-32v0z" />
<glyph unicode="&#xf27b;" glyph-name="arrow-fat-line-up" data-tags="arrow-fat-line-up" d="M918.8 566.8l-384 384c-5.852 5.798-13.908 9.38-22.8 9.38s-16.948-3.582-22.802-9.382l-383.998-383.998c-5.635-5.995-9.097-14.088-9.097-22.99 0-4.393 0.843-8.59 2.377-12.436l-0.080 0.227c4.973-11.612 16.304-19.6 29.5-19.6 0.035 0 0.070 0 0.106 0h159.995v-224c0-17.673 14.327-32 32-32v0h384c17.673 0 32 14.327 32 32v0 224h160c0.030 0 0.065 0 0.1 0 13.196 0 24.527 7.988 29.42 19.392l0.079 0.208c1.454 3.62 2.297 7.816 2.297 12.21 0 8.902-3.462 16.996-9.113 23.008l0.016-0.018zM704 576c-17.673 0-32-14.327-32-32v0-224h-320v224c0 17.673-14.327 32-32 32v0h-114.8l306.8 306.8 306.8-306.8zM736 160c0-17.673-14.327-32-32-32v0h-384c-17.673 0-32 14.327-32 32s14.327 32 32 32v0h384c17.673 0 32-14.327 32-32v0z" />
<glyph unicode="&#xf27c;" glyph-name="arrow-fat-lines-down" data-tags="arrow-fat-lines-down" d="M925.6 492.4c-4.973 11.612-16.304 19.6-29.5 19.6-0.035 0-0.070 0-0.106 0h-159.995v96c0 17.673-14.327 32-32 32v0h-384c-17.673 0-32-14.327-32-32v0-96h-160c-0.030 0-0.065 0-0.1 0-13.196 0-24.527-7.988-29.42-19.392l-0.079-0.208c-1.454-3.62-2.297-7.816-2.297-12.21 0-8.902 3.462-16.996 9.113-23.008l-0.016 0.018 384-384c5.894-5.705 13.936-9.22 22.8-9.22s16.906 3.516 22.809 9.229l383.991 383.991c5.635 5.995 9.097 14.088 9.097 22.99 0 4.393-0.843 8.59-2.377 12.436l0.080-0.227zM512 141.2l-306.8 306.8h114.8c17.673 0 32 14.327 32 32v0 96h320v-96c0-17.673 14.327-32 32-32v0h114.8zM288 864c0 17.673 14.327 32 32 32v0h384c17.673 0 32-14.327 32-32s-14.327-32-32-32v0h-384c-17.673 0-32 14.327-32 32v0zM288 736c0 17.673 14.327 32 32 32v0h384c17.673 0 32-14.327 32-32s-14.327-32-32-32v0h-384c-17.673 0-32 14.327-32 32v0z" />
<glyph unicode="&#xf27d;" glyph-name="arrow-fat-lines-left" data-tags="arrow-fat-lines-left" d="M608 736h-96v160c0 0.030 0 0.065 0 0.1 0 13.196-7.988 24.527-19.392 29.42l-0.208 0.079c-3.62 1.454-7.816 2.297-12.21 2.297-8.902 0-16.996-3.462-23.008-9.113l0.018 0.016-384-384c-5.798-5.852-9.38-13.908-9.38-22.8s3.582-16.948 9.382-22.802l383.998-383.998c5.917-5.663 13.946-9.161 22.792-9.2h0.008c4.47 0.020 8.729 0.9 12.628 2.482l-0.228-0.082c11.612 4.973 19.6 16.304 19.6 29.5 0 0.035 0 0.070 0 0.106v-0.005 160h96c17.673 0 32 14.327 32 32v0 384c0 17.673-14.327 32-32 32v0zM576 352h-96c-17.673 0-32-14.327-32-32v0-114.8l-306.8 306.8 306.8 306.8v-114.8c0-17.673 14.327-32 32-32v0h96zM896 704v-384c0-17.673-14.327-32-32-32s-32 14.327-32 32v0 384c0 17.673 14.327 32 32 32s32-14.327 32-32v0zM768 704v-384c0-17.673-14.327-32-32-32s-32 14.327-32 32v0 384c0 17.673 14.327 32 32 32s32-14.327 32-32v0z" />
<glyph unicode="&#xf27e;" glyph-name="arrow-fat-lines-right" data-tags="arrow-fat-lines-right" d="M950.8 534.8l-384 384c-5.995 5.635-14.088 9.097-22.99 9.097-4.393 0-8.59-0.843-12.436-2.377l0.227 0.080c-11.612-4.973-19.6-16.304-19.6-29.5 0-0.035 0-0.070 0-0.106v0.005-160h-96c-17.673 0-32-14.327-32-32v0-384c0-17.673 14.327-32 32-32v0h96v-160c0-0.030 0-0.065 0-0.1 0-13.196 7.988-24.527 19.392-29.42l0.208-0.079c3.671-1.5 7.93-2.38 12.392-2.4h0.008c8.854 0.039 16.883 3.537 22.812 9.212l383.988 383.988c5.798 5.852 9.38 13.908 9.38 22.8s-3.582 16.948-9.382 22.802l0.002-0.002zM576 205.2v114.8c0 17.673-14.327 32-32 32v0h-96v320h96c17.673 0 32 14.327 32 32v0 114.8l306.8-306.8zM192 704v-384c0-17.673-14.327-32-32-32s-32 14.327-32 32v0 384c0 17.673 14.327 32 32 32s32-14.327 32-32v0zM320 704v-384c0-17.673-14.327-32-32-32s-32 14.327-32 32v0 384c0 17.673 14.327 32 32 32s32-14.327 32-32v0z" />
<glyph unicode="&#xf27f;" glyph-name="arrow-fat-lines-up" data-tags="arrow-fat-lines-up" d="M918.8 566.8l-384 384c-5.852 5.798-13.908 9.38-22.8 9.38s-16.948-3.582-22.802-9.382l-383.998-383.998c-5.635-5.995-9.097-14.088-9.097-22.99 0-4.393 0.843-8.59 2.377-12.436l-0.080 0.227c4.973-11.612 16.304-19.6 29.5-19.6 0.035 0 0.070 0 0.106 0h159.995v-96c0-17.673 14.327-32 32-32v0h384c17.673 0 32 14.327 32 32v0 96h160c0.030 0 0.065 0 0.1 0 13.196 0 24.527 7.988 29.42 19.392l0.079 0.208c1.454 3.62 2.297 7.816 2.297 12.21 0 8.902-3.462 16.996-9.113 23.008l0.016-0.018zM704 576c-17.673 0-32-14.327-32-32v0-96h-320v96c0 17.673-14.327 32-32 32v0h-114.8l306.8 306.8 306.8-306.8zM736 160c0-17.673-14.327-32-32-32v0h-384c-17.673 0-32 14.327-32 32s14.327 32 32 32v0h384c17.673 0 32-14.327 32-32v0zM736 288c0-17.673-14.327-32-32-32v0h-384c-17.673 0-32 14.327-32 32s14.327 32 32 32v0h384c17.673 0 32-14.327 32-32v0z" />
<glyph unicode="&#xf280;" glyph-name="arrow-fat-right" data-tags="arrow-fat-right" d="M950.8 534.8l-384 384c-5.995 5.635-14.088 9.097-22.99 9.097-4.393 0-8.59-0.843-12.436-2.377l0.227 0.080c-11.612-4.973-19.6-16.304-19.6-29.5 0-0.035 0-0.070 0-0.106v0.005-160h-320c-35.346 0-64-28.654-64-64v0-320c0-35.346 28.654-64 64-64v0h320v-160c0-0.030 0-0.065 0-0.1 0-13.196 7.988-24.527 19.392-29.42l0.208-0.079c3.671-1.5 7.93-2.38 12.392-2.4h0.008c8.854 0.039 16.883 3.537 22.812 9.212l383.988 383.988c5.798 5.852 9.38 13.908 9.38 22.8s-3.582 16.948-9.382 22.802l0.002-0.002zM576 205.2v114.8c0 17.673-14.327 32-32 32v0h-352v320h352c17.673 0 32 14.327 32 32v0 114.8l306.8-306.8z" />
<glyph unicode="&#xf281;" glyph-name="arrow-fat-up" data-tags="arrow-fat-up" d="M918.8 566.8l-384 384c-5.852 5.798-13.908 9.38-22.8 9.38s-16.948-3.582-22.802-9.382l-383.998-383.998c-5.635-5.995-9.097-14.088-9.097-22.99 0-4.393 0.843-8.59 2.377-12.436l-0.080 0.227c4.973-11.612 16.304-19.6 29.5-19.6 0.035 0 0.070 0 0.106 0h159.995v-320c0-35.346 28.654-64 64-64v0h320c35.346 0 64 28.654 64 64v0 320h160c0.030 0 0.065 0 0.1 0 13.196 0 24.527 7.988 29.42 19.392l0.079 0.208c1.454 3.62 2.297 7.816 2.297 12.21 0 8.902-3.462 16.996-9.113 23.008l0.016-0.018zM704 576c-17.673 0-32-14.327-32-32v0-352h-320v352c0 17.673-14.327 32-32 32v0h-114.8l306.8 306.8 306.8-306.8z" />
<glyph unicode="&#xf282;" glyph-name="arrow-left" data-tags="arrow-left" d="M896 512c0-17.673-14.327-32-32-32v0h-626.8l233.6-233.2c5.798-5.852 9.38-13.908 9.38-22.8s-3.582-16.948-9.382-22.802l0.002 0.002c-5.894-5.705-13.936-9.22-22.8-9.22s-16.906 3.516-22.809 9.229l-287.991 287.991c-5.798 5.852-9.38 13.908-9.38 22.8s3.582 16.948 9.382 22.802l287.998 287.998c5.546 4.578 12.726 7.355 20.555 7.355 17.894 0 32.4-14.506 32.4-32.4 0-7.829-2.777-15.009-7.399-20.61l0.044 0.055-233.6-233.2h626.8c17.673 0 32-14.327 32-32v0z" />
<glyph unicode="&#xf283;" glyph-name="arrow-line-down" data-tags="arrow-line-down" d="M201.2 553.2c-4.578 5.546-7.355 12.726-7.355 20.555 0 17.894 14.506 32.4 32.4 32.4 7.829 0 15.009-2.777 20.61-7.399l-0.055 0.044 233.2-233.6v530.8c0 17.673 14.327 32 32 32s32-14.327 32-32v0-530.8l233.2 233.6c5.546 4.578 12.726 7.355 20.555 7.355 17.894 0 32.4-14.506 32.4-32.4 0-7.829-2.777-15.009-7.399-20.61l0.044 0.055-288-288c-5.894-5.705-13.936-9.22-22.8-9.22s-16.906 3.516-22.809 9.229l0.009-0.009zM864 192h-704c-17.673 0-32-14.327-32-32s14.327-32 32-32v0h704c17.673 0 32 14.327 32 32s-14.327 32-32 32v0z" />
<glyph unicode="&#xf284;" glyph-name="arrow-line-down-left" data-tags="arrow-line-down-left" d="M726.8 694.8c5.798-5.852 9.38-13.908 9.38-22.8s-3.582-16.948-9.382-22.802l0.002 0.002-393.6-393.2h322.8c17.673 0 32-14.327 32-32s-14.327-32-32-32v0h-400c-17.673 0-32 14.327-32 32v0 400c0 17.673 14.327 32 32 32s32-14.327 32-32v0-322.8l393.2 393.6c5.852 5.798 13.908 9.38 22.8 9.38s16.948-3.582 22.802-9.382l-0.002 0.002zM864 896h-704c-17.673 0-32-14.327-32-32s14.327-32 32-32v0h704c17.673 0 32 14.327 32 32s-14.327 32-32 32v0z" />
<glyph unicode="&#xf285;" glyph-name="arrow-line-down-right" data-tags="arrow-line-down-right" d="M800 624v-400c0-17.673-14.327-32-32-32v0h-400c-17.673 0-32 14.327-32 32s14.327 32 32 32v0h322.8l-393.6 393.2c-4.578 5.546-7.355 12.726-7.355 20.555 0 17.894 14.506 32.4 32.4 32.4 7.829 0 15.009-2.777 20.61-7.399l-0.055 0.044 393.2-393.6v322.8c0 17.673 14.327 32 32 32s32-14.327 32-32v0zM864 896h-704c-17.673 0-32-14.327-32-32s14.327-32 32-32v0h704c17.673 0 32 14.327 32 32s-14.327 32-32 32v0z" />
<glyph unicode="&#xf286;" glyph-name="arrow-line-left" data-tags="arrow-line-left" d="M928 512c0-17.673-14.327-32-32-32v0h-530.8l233.6-233.2c5.798-5.852 9.38-13.908 9.38-22.8s-3.582-16.948-9.382-22.802l0.002 0.002c-5.894-5.705-13.936-9.22-22.8-9.22s-16.906 3.516-22.809 9.229l-287.991 287.991c-5.798 5.852-9.38 13.908-9.38 22.8s3.582 16.948 9.382 22.802l287.998 287.998c5.546 4.578 12.726 7.355 20.555 7.355 17.894 0 32.4-14.506 32.4-32.4 0-7.829-2.777-15.009-7.399-20.61l0.044 0.055-233.6-233.2h530.8c17.673 0 32-14.327 32-32v0zM160 896c-17.673 0-32-14.327-32-32v0-704c0-17.673 14.327-32 32-32s32 14.327 32 32v0 704c0 17.673-14.327 32-32 32v0z" />
<glyph unicode="&#xf287;" glyph-name="arrow-line-right" data-tags="arrow-line-right" d="M758.8 534.8c5.798-5.852 9.38-13.908 9.38-22.8s-3.582-16.948-9.382-22.802l-287.998-287.998c-5.894-5.705-13.936-9.22-22.8-9.22s-16.906 3.516-22.809 9.229l0.009-0.009c-5.798 5.852-9.38 13.908-9.38 22.8s3.582 16.948 9.382 22.802l-0.002-0.002 233.6 233.2h-530.8c-17.673 0-32 14.327-32 32s14.327 32 32 32v0h530.8l-233.6 233.2c-4.578 5.546-7.355 12.726-7.355 20.555 0 17.894 14.506 32.4 32.4 32.4 7.829 0 15.009-2.777 20.61-7.399l-0.055 0.044zM864 896c-17.673 0-32-14.327-32-32v0-704c0-17.673 14.327-32 32-32s32 14.327 32 32v0 704c0 17.673-14.327 32-32 32v0z" />
<glyph unicode="&#xf288;" glyph-name="arrow-line-up" data-tags="arrow-line-up" d="M822.8 470.8c5.798-5.852 9.38-13.908 9.38-22.8s-3.582-16.948-9.382-22.802l0.002 0.002c-5.894-5.705-13.936-9.22-22.8-9.22s-16.906 3.516-22.809 9.229l0.009-0.009-233.2 233.6v-530.8c0-17.673-14.327-32-32-32s-32 14.327-32 32v0 530.8l-233.2-233.6c-5.546-4.578-12.726-7.355-20.555-7.355-17.894 0-32.4 14.506-32.4 32.4 0 7.829 2.777 15.009 7.399 20.61l-0.044-0.055 288 288c5.852 5.798 13.908 9.38 22.8 9.38s16.948-3.582 22.802-9.382l-0.002 0.002zM864 896h-704c-17.673 0-32-14.327-32-32s14.327-32 32-32v0h704c17.673 0 32 14.327 32 32s-14.327 32-32 32v0z" />
<glyph unicode="&#xf289;" glyph-name="arrow-line-up-left" data-tags="arrow-line-up-left" d="M224 400v400c0 17.673 14.327 32 32 32v0h400c17.673 0 32-14.327 32-32s-14.327-32-32-32v0h-322.8l393.6-393.2c5.798-5.852 9.38-13.908 9.38-22.8s-3.582-16.948-9.382-22.802l0.002 0.002c-5.894-5.705-13.936-9.22-22.8-9.22s-16.906 3.516-22.809 9.229l0.009-0.009-393.2 393.6v-322.8c0-17.673-14.327-32-32-32s-32 14.327-32 32v0zM864 192h-704c-17.673 0-32-14.327-32-32s14.327-32 32-32v0h704c17.673 0 32 14.327 32 32s-14.327 32-32 32v0z" />
<glyph unicode="&#xf28a;" glyph-name="arrow-line-up-right" data-tags="arrow-line-up-right" d="M297.2 329.2c-5.798 5.852-9.38 13.908-9.38 22.8s3.582 16.948 9.382 22.802l-0.002-0.002 393.6 393.2h-322.8c-17.673 0-32 14.327-32 32s14.327 32 32 32v0h400c17.673 0 32-14.327 32-32v0-400c0-17.673-14.327-32-32-32s-32 14.327-32 32v0 322.8l-393.2-393.6c-5.894-5.705-13.936-9.22-22.8-9.22s-16.906 3.516-22.809 9.229l0.009-0.009zM864 192h-704c-17.673 0-32-14.327-32-32s14.327-32 32-32v0h704c17.673 0 32 14.327 32 32s-14.327 32-32 32v0z" />
<glyph unicode="&#xf28b;" glyph-name="arrow-right" data-tags="arrow-right" d="M886.8 489.2l-288-288c-5.894-5.705-13.936-9.22-22.8-9.22s-16.906 3.516-22.809 9.229l0.009-0.009c-5.798 5.852-9.38 13.908-9.38 22.8s3.582 16.948 9.382 22.802l-0.002-0.002 233.6 233.2h-626.8c-17.673 0-32 14.327-32 32s14.327 32 32 32v0h626.8l-233.6 233.2c-4.578 5.546-7.355 12.726-7.355 20.555 0 17.894 14.506 32.4 32.4 32.4 7.829 0 15.009-2.777 20.61-7.399l-0.055 0.044 288-288c5.798-5.852 9.38-13.908 9.38-22.8s-3.582-16.948-9.382-22.802l0.002 0.002z" />
<glyph unicode="&#xf28c;" glyph-name="arrow-square-down" data-tags="arrow-square-down" d="M832 896h-640c-35.346 0-64-28.654-64-64v0-640c0-35.346 28.654-64 64-64v0h640c35.346 0 64 28.654 64 64v0 640c0 35.346-28.654 64-64 64v0zM832 192h-640v640h640v-640zM670.4 510.4c5.775-5.788 9.345-13.777 9.345-22.6s-3.571-16.812-9.346-22.601l-135.599-135.999c-5.894-5.705-13.936-9.22-22.8-9.22s-16.906 3.516-22.809 9.229l0.009-0.009-135.6 136c-5.14 5.656-8.286 13.204-8.286 21.486 0 17.673 14.327 32 32 32 8.283 0 15.83-3.147 21.513-8.31l-0.026 0.024 81.2-81.2v242.8c0 17.673 14.327 32 32 32s32-14.327 32-32v0-242.8l81.2 81.2c5.788 5.775 13.777 9.345 22.6 9.345s16.812-3.571 22.601-9.346l-0.001 0.001z" />
<glyph unicode="&#xf28d;" glyph-name="arrow-square-down-left" data-tags="arrow-square-down-left" d="M832 896h-640c-35.346 0-64-28.654-64-64v0-640c0-35.346 28.654-64 64-64v0h640c35.346 0 64 28.654 64 64v0 640c0 35.346-28.654 64-64 64v0zM832 192h-640v640h640zM368 400v192c0 17.673 14.327 32 32 32s32-14.327 32-32v0-114.8l169.2 169.6c5.546 4.578 12.726 7.355 20.555 7.355 17.894 0 32.4-14.506 32.4-32.4 0-7.829-2.777-15.009-7.399-20.61l0.044 0.055-169.6-169.2h114.8c17.673 0 32-14.327 32-32s-14.327-32-32-32v0h-192c-17.673 0-32 14.327-32 32v0z" />
<glyph unicode="&#xf28e;" glyph-name="arrow-square-down-right" data-tags="arrow-square-down-right" d="M832 896h-640c-35.346 0-64-28.654-64-64v0-640c0-35.346 28.654-64 64-64v0h640c35.346 0 64 28.654 64 64v0 640c0 35.346-28.654 64-64 64v0zM832 192h-640v640h640zM377.2 601.2c-4.578 5.546-7.355 12.726-7.355 20.555 0 17.894 14.506 32.4 32.4 32.4 7.829 0 15.009-2.777 20.61-7.399l-0.055 0.044 169.2-169.6v114.8c0 17.673 14.327 32 32 32s32-14.327 32-32v0-192c0-17.673-14.327-32-32-32v0h-192c-17.673 0-32 14.327-32 32s14.327 32 32 32v0h114.8z" />
<glyph unicode="&#xf28f;" glyph-name="arrow-square-in" data-tags="arrow-square-in" d="M480 448v-240c0-17.673-14.327-32-32-32s-32 14.327-32 32v0 162.8l-233.6-233.6c-5.761-5.676-13.669-9.185-22.397-9.2h-0.003c-8.854 0.039-16.883 3.537-22.812 9.212l0.012-0.012c-5.775 5.788-9.345 13.777-9.345 22.6s3.571 16.812 9.346 22.601l233.599 233.599h-162.8c-17.673 0-32 14.327-32 32s14.327 32 32 32v0h240c17.673 0 32-14.327 32-32v0zM832 896h-544c-35.346 0-64-28.654-64-64v0-192c0-17.673 14.327-32 32-32s32 14.327 32 32v0 192h544v-544h-192c-17.673 0-32-14.327-32-32s14.327-32 32-32v0h192c35.346 0 64 28.654 64 64v0 544c0 35.346-28.654 64-64 64v0z" />
<glyph unicode="&#xf290;" glyph-name="arrow-square-left" data-tags="arrow-square-left" d="M832 896h-640c-35.346 0-64-28.654-64-64v0-640c0-35.346 28.654-64 64-64v0h640c35.346 0 64 28.654 64 64v0 640c0 35.346-28.654 64-64 64v0zM832 192h-640v640h640zM329.2 489.2c-5.798 5.852-9.38 13.908-9.38 22.8s3.582 16.948 9.382 22.802l-0.002-0.002 136 135.6c5.656 5.14 13.204 8.286 21.486 8.286 17.673 0 32-14.327 32-32 0-8.283-3.147-15.83-8.31-21.513l0.024 0.026-81.2-81.2h242.8c17.673 0 32-14.327 32-32s-14.327-32-32-32v0h-242.8l81.2-81.2c5.775-5.788 9.345-13.777 9.345-22.6s-3.571-16.812-9.346-22.601l0.001 0.001c-5.653-5.687-13.481-9.207-22.13-9.207-0.235 0-0.47 0.003-0.704 0.008l0.035-0.001c-0.18-0.004-0.393-0.006-0.606-0.006-8.544 0-16.265 3.525-21.787 9.199l-0.007 0.007z" />
<glyph unicode="&#xf291;" glyph-name="arrow-square-out" data-tags="arrow-square-out" d="M896 624c0-17.673-14.327-32-32-32s-32 14.327-32 32v0 162.8l-233.6-233.6c-5.761-5.676-13.669-9.185-22.397-9.2h-0.003c-8.854 0.039-16.883 3.537-22.812 9.212l0.012-0.012c-5.775 5.788-9.345 13.777-9.345 22.6s3.571 16.812 9.346 22.601l233.599 233.599h-162.8c-17.673 0-32 14.327-32 32s14.327 32 32 32v0h240c17.673 0 32-14.327 32-32v0zM736 480c-17.673 0-32-14.327-32-32v0-256h-512v512h256c17.673 0 32 14.327 32 32s-14.327 32-32 32v0h-256c-35.346 0-64-28.654-64-64v0-512c0-35.346 28.654-64 64-64v0h512c35.346 0 64 28.654 64 64v0 256c0 17.673-14.327 32-32 32v0z" />
<glyph unicode="&#xf292;" glyph-name="arrow-square-right" data-tags="arrow-square-right" d="M832 896h-640c-35.346 0-64-28.654-64-64v0-640c0-35.346 28.654-64 64-64v0h640c35.346 0 64 28.654 64 64v0 640c0 35.346-28.654 64-64 64v0zM832 192h-640v640h640zM320 512c0 17.673 14.327 32 32 32v0h242.8l-81.2 81.2c-5.14 5.656-8.286 13.204-8.286 21.486 0 17.673 14.327 32 32 32 8.283 0 15.83-3.147 21.513-8.31l-0.026 0.024 136-135.6c5.798-5.852 9.38-13.908 9.38-22.8s-3.582-16.948-9.382-22.802l0.002 0.002-136-135.6c-5.529-5.681-13.25-9.206-21.794-9.206-0.213 0-0.426 0.002-0.638 0.007l0.032-0.001c-0.199-0.005-0.434-0.007-0.67-0.007-8.65 0-16.478 3.52-22.129 9.206l-0.002 0.002c-5.775 5.788-9.345 13.777-9.345 22.6s3.571 16.812 9.346 22.601l81.199 81.199h-242.8c-17.673 0-32 14.327-32 32v0z" />
<glyph unicode="&#xf293;" glyph-name="arrow-square-up" data-tags="arrow-square-up" d="M832 896h-640c-35.346 0-64-28.654-64-64v0-640c0-35.346 28.654-64 64-64v0h640c35.346 0 64 28.654 64 64v0 640c0 35.346-28.654 64-64 64v0zM832 192h-640v640h640zM353.6 513.6c-5.775 5.788-9.345 13.777-9.345 22.6s3.571 16.812 9.346 22.601l135.599 135.999c5.894 5.705 13.936 9.22 22.8 9.22s16.906-3.516 22.809-9.229l-0.009 0.009 135.6-136c5.775-5.788 9.345-13.777 9.345-22.6s-3.571-16.812-9.346-22.601l0.001 0.001c-5.653-5.687-13.481-9.207-22.13-9.207-0.235 0-0.47 0.003-0.704 0.008l0.035-0.001c-0.18-0.004-0.393-0.006-0.606-0.006-8.544 0-16.265 3.525-21.787 9.199l-81.207 81.207v-242.8c0-17.673-14.327-32-32-32s-32 14.327-32 32v0 242.8l-81.2-81.2c-5.788-5.775-13.777-9.345-22.6-9.345s-16.812 3.571-22.601 9.346l0.001-0.001z" />
<glyph unicode="&#xf294;" glyph-name="arrow-square-up-left" data-tags="arrow-square-up-left" d="M832 896h-640c-35.346 0-64-28.654-64-64v0-640c0-35.346 28.654-64 64-64v0h640c35.346 0 64 28.654 64 64v0 640c0 35.346-28.654 64-64 64v0zM832 192h-640v640h640zM368 432v192c0 17.673 14.327 32 32 32v0h192c17.673 0 32-14.327 32-32s-14.327-32-32-32v0h-114.8l169.6-169.2c5.798-5.852 9.38-13.908 9.38-22.8s-3.582-16.948-9.382-22.802l0.002 0.002c-5.894-5.705-13.936-9.22-22.8-9.22s-16.906 3.516-22.809 9.229l0.009-0.009-169.2 169.6v-114.8c0-17.673-14.327-32-32-32s-32 14.327-32 32v0z" />
<glyph unicode="&#xf295;" glyph-name="arrow-square-up-right" data-tags="arrow-square-up-right" d="M832 896h-640c-35.346 0-64-28.654-64-64v0-640c0-35.346 28.654-64 64-64v0h640c35.346 0 64 28.654 64 64v0 640c0 35.346-28.654 64-64 64v0zM832 192h-640v640h640zM377.2 377.2c-5.798 5.852-9.38 13.908-9.38 22.8s3.582 16.948 9.382 22.802l-0.002-0.002 169.6 169.2h-114.8c-17.673 0-32 14.327-32 32s14.327 32 32 32v0h192c17.673 0 32-14.327 32-32v0-192c0-17.673-14.327-32-32-32s-32 14.327-32 32v0 114.8l-169.2-169.6c-5.894-5.705-13.936-9.22-22.8-9.22s-16.906 3.516-22.809 9.229l0.009-0.009z" />
<glyph unicode="&#xf296;" glyph-name="arrow-u-down-left" data-tags="arrow-u-down-left" d="M928 576c-0.227-141.293-114.707-255.773-255.978-256h-466.822l137.6-137.2c5.798-5.852 9.38-13.908 9.38-22.8s-3.582-16.948-9.382-22.802l0.002 0.002c-5.894-5.705-13.936-9.22-22.8-9.22s-16.906 3.516-22.809 9.229l-191.991 191.991c-5.798 5.852-9.38 13.908-9.38 22.8s3.582 16.948 9.382 22.802l191.998 191.998c5.546 4.578 12.726 7.355 20.555 7.355 17.894 0 32.4-14.506 32.4-32.4 0-7.829-2.777-15.009-7.399-20.61l0.044 0.055-137.6-137.2h466.8c106.039 0 192 85.961 192 192s-85.961 192-192 192v0h-352c-17.673 0-32 14.327-32 32s14.327 32 32 32v0h352c141.293-0.227 255.773-114.707 256-255.978v-0.022z" />
<glyph unicode="&#xf297;" glyph-name="arrow-u-down-right" data-tags="arrow-u-down-right" d="M918.8 329.2l-192-192c-5.894-5.705-13.936-9.22-22.8-9.22s-16.906 3.516-22.809 9.229l0.009-0.009c-5.798 5.852-9.38 13.908-9.38 22.8s3.582 16.948 9.382 22.802l-0.002-0.002 137.6 137.2h-466.8c-141.385 0-256 114.615-256 256s114.615 256 256 256v0h352c17.673 0 32-14.327 32-32s-14.327-32-32-32v0h-352c-106.039 0-192-85.961-192-192s85.961-192 192-192v0h466.8l-137.6 137.2c-4.578 5.546-7.355 12.726-7.355 20.555 0 17.894 14.506 32.4 32.4 32.4 7.829 0 15.009-2.777 20.61-7.399l-0.055 0.044 192-192c5.798-5.852 9.38-13.908 9.38-22.8s-3.582-16.948-9.382-22.802l0.002 0.002z" />
<glyph unicode="&#xf298;" glyph-name="arrow-u-left-down" data-tags="arrow-u-left-down" d="M832 672v-352c0-17.673-14.327-32-32-32s-32 14.327-32 32v0 352c0 106.039-85.961 192-192 192s-192-85.961-192-192v0-466.8l137.2 137.6c5.546 4.578 12.726 7.355 20.555 7.355 17.894 0 32.4-14.506 32.4-32.4 0-7.829-2.777-15.009-7.399-20.61l0.044 0.055-192-192c-5.894-5.705-13.936-9.22-22.8-9.22s-16.906 3.516-22.809 9.229l-191.991 191.991c-4.578 5.546-7.355 12.726-7.355 20.555 0 17.894 14.506 32.4 32.4 32.4 7.829 0 15.009-2.777 20.61-7.399l-0.055 0.044 137.2-137.6v466.8c0 141.385 114.615 256 256 256s256-114.615 256-256v0z" />
<glyph unicode="&#xf299;" glyph-name="arrow-u-left-up" data-tags="arrow-u-left-up" d="M832 704v-352c0-141.385-114.615-256-256-256s-256 114.615-256 256v0 466.8l-137.2-137.6c-5.546-4.578-12.726-7.355-20.555-7.355-17.894 0-32.4 14.506-32.4 32.4 0 7.829 2.777 15.009 7.399 20.61l-0.044-0.055 192 192c5.852 5.798 13.908 9.38 22.8 9.38s16.948-3.582 22.802-9.382l191.998-191.998c5.798-5.852 9.38-13.908 9.38-22.8s-3.582-16.948-9.382-22.802l0.002 0.002c-5.894-5.705-13.936-9.22-22.8-9.22s-16.906 3.516-22.809 9.229l0.009-0.009-137.2 137.6v-466.8c0-106.039 85.961-192 192-192s192 85.961 192 192v0 352c0 17.673 14.327 32 32 32s32-14.327 32-32v0z" />
<glyph unicode="&#xf29a;" glyph-name="arrow-u-right-down" data-tags="arrow-u-right-down" d="M886.8 297.2l-192-192c-5.894-5.705-13.936-9.22-22.8-9.22s-16.906 3.516-22.809 9.229l-191.991 191.991c-4.578 5.546-7.355 12.726-7.355 20.555 0 17.894 14.506 32.4 32.4 32.4 7.829 0 15.009-2.777 20.61-7.399l-0.055 0.044 137.2-137.6v466.8c0 106.039-85.961 192-192 192s-192-85.961-192-192v0-352c0-17.673-14.327-32-32-32s-32 14.327-32 32v0 352c0 141.385 114.615 256 256 256s256-114.615 256-256v0-466.8l137.2 137.6c5.546 4.578 12.726 7.355 20.555 7.355 17.894 0 32.4-14.506 32.4-32.4 0-7.829-2.777-15.009-7.399-20.61l0.044 0.055z" />
<glyph unicode="&#xf29b;" glyph-name="arrow-u-right-up" data-tags="arrow-u-right-up" d="M886.8 681.2c-5.894-5.705-13.936-9.22-22.8-9.22s-16.906 3.516-22.809 9.229l0.009-0.009-137.2 137.6v-466.8c0-141.385-114.615-256-256-256s-256 114.615-256 256v0 352c0 17.673 14.327 32 32 32s32-14.327 32-32v0-352c0-106.039 85.961-192 192-192s192 85.961 192 192v0 466.8l-137.2-137.6c-5.546-4.578-12.726-7.355-20.555-7.355-17.894 0-32.4 14.506-32.4 32.4 0 7.829 2.777 15.009 7.399 20.61l-0.044-0.055 192 192c5.852 5.798 13.908 9.38 22.8 9.38s16.948-3.582 22.802-9.382l191.998-191.998c5.798-5.852 9.38-13.908 9.38-22.8s-3.582-16.948-9.382-22.802l0.002 0.002z" />
<glyph unicode="&#xf29c;" glyph-name="arrow-u-up-left" data-tags="arrow-u-up-left" d="M928 448c-0.227-141.293-114.707-255.773-255.978-256h-352.022c-17.673 0-32 14.327-32 32s14.327 32 32 32v0h352c106.039 0 192 85.961 192 192s-85.961 192-192 192v0h-466.8l137.6-137.2c5.798-5.852 9.38-13.908 9.38-22.8s-3.582-16.948-9.382-22.802l0.002 0.002c-5.894-5.705-13.936-9.22-22.8-9.22s-16.906 3.516-22.809 9.229l-191.991 191.991c-5.798 5.852-9.38 13.908-9.38 22.8s3.582 16.948 9.382 22.802l191.998 191.998c5.546 4.578 12.726 7.355 20.555 7.355 17.894 0 32.4-14.506 32.4-32.4 0-7.829-2.777-15.009-7.399-20.61l0.044 0.055-137.6-137.2h466.8c141.293-0.227 255.773-114.707 256-255.978v-0.022z" />
<glyph unicode="&#xf29d;" glyph-name="arrow-u-up-right" data-tags="arrow-u-up-right" d="M681.2 502.8l137.6 137.2h-466.8c-106.039 0-192-85.961-192-192s85.961-192 192-192v0h352c17.673 0 32-14.327 32-32s-14.327-32-32-32v0h-352c-141.385 0-256 114.615-256 256s114.615 256 256 256v0h466.8l-137.6 137.2c-4.578 5.546-7.355 12.726-7.355 20.555 0 17.894 14.506 32.4 32.4 32.4 7.829 0 15.009-2.777 20.61-7.399l-0.055 0.044 192-192c5.798-5.852 9.38-13.908 9.38-22.8s-3.582-16.948-9.382-22.802l-191.998-191.998c-5.894-5.705-13.936-9.22-22.8-9.22s-16.906 3.516-22.809 9.229l0.009-0.009c-5.798 5.852-9.38 13.908-9.38 22.8s3.582 16.948 9.382 22.802l-0.002-0.002z" />
<glyph unicode="&#xf29e;" glyph-name="arrow-up" data-tags="arrow-up" d="M822.8 553.2c-5.894-5.705-13.936-9.22-22.8-9.22s-16.906 3.516-22.809 9.229l0.009-0.009-233.2 233.6v-626.8c0-17.673-14.327-32-32-32s-32 14.327-32 32v0 626.8l-233.2-233.6c-5.546-4.578-12.726-7.355-20.555-7.355-17.894 0-32.4 14.506-32.4 32.4 0 7.829 2.777 15.009 7.399 20.61l-0.044-0.055 288 288c5.852 5.798 13.908 9.38 22.8 9.38s16.948-3.582 22.802-9.382l287.998-287.998c5.798-5.852 9.38-13.908 9.38-22.8s-3.582-16.948-9.382-22.802l0.002 0.002z" />
<glyph unicode="&#xf29f;" glyph-name="arrow-up-left" data-tags="arrow-up-left" d="M790.8 233.2c-5.894-5.705-13.936-9.22-22.8-9.22s-16.906 3.516-22.809 9.229l-457.191 457.591v-338.8c0-17.673-14.327-32-32-32s-32 14.327-32 32v0 416c0 17.673 14.327 32 32 32v0h416c17.673 0 32-14.327 32-32s-14.327-32-32-32v0h-338.8l457.6-457.2c5.798-5.852 9.38-13.908 9.38-22.8s-3.582-16.948-9.382-22.802l0.002 0.002z" />
<glyph unicode="&#xf2a0;" glyph-name="arrow-up-right" data-tags="arrow-up-right" d="M800 768v-416c0-17.673-14.327-32-32-32s-32 14.327-32 32v0 338.8l-457.2-457.6c-5.894-5.705-13.936-9.22-22.8-9.22s-16.906 3.516-22.809 9.229l0.009-0.009c-5.798 5.852-9.38 13.908-9.38 22.8s3.582 16.948 9.382 22.802l457.598 457.198h-338.8c-17.673 0-32 14.327-32 32s14.327 32 32 32v0h416c17.673 0 32-14.327 32-32v0z" />
<glyph unicode="&#xf2a1;" glyph-name="arrows-clockwise" data-tags="arrows-clockwise" d="M928.8 817.2v-192c0-17.673-14.327-32-32-32v0h-192c-17.673 0-32 14.327-32 32s14.327 32 32 32v0h114.8l-81.2 81.2c-58.009 57.791-138.032 93.521-226.4 93.521s-168.391-35.73-226.41-93.531l0.010 0.010c-5.743-5.873-13.746-9.514-22.6-9.514s-16.857 3.641-22.594 9.508l-0.006 0.006c-5.775 5.788-9.345 13.777-9.345 22.6s3.571 16.812 9.346 22.601l-0.001-0.001c69.586 69.34 165.586 112.212 271.6 112.212s202.015-42.871 271.611-112.223l81.189-81.189v114.8c0 17.673 14.327 32 32 32s32-14.327 32-32v0zM738.4 285.6c-58.009-57.791-138.032-93.521-226.4-93.521s-168.391 35.73-226.41 93.531l-81.19 81.19h114.8c17.673 0 32 14.327 32 32s-14.327 32-32 32v0h-192c-17.673 0-32-14.327-32-32v0-192c0-17.673 14.327-32 32-32s32 14.327 32 32v0 114.8l81.2-81.2c69.541-69.436 165.556-112.376 271.6-112.376s202.058 42.94 271.604 112.381l-0.004-0.004c5.775 5.788 9.345 13.777 9.345 22.6s-3.571 16.812-9.346 22.601l0.001-0.001c-5.743 5.873-13.746 9.514-22.6 9.514s-16.857-3.641-22.594-9.508l-0.006-0.006z" />
<glyph unicode="&#xf2a2;" glyph-name="arrows-counter-clockwise" data-tags="arrows-counter-clockwise" d="M319.2 593.2h-192c-17.673 0-32 14.327-32 32v0 192c0 17.673 14.327 32 32 32s32-14.327 32-32v-114.8l81.2 81.2c69.586 69.34 165.586 112.212 271.6 112.212s202.015-42.871 271.611-112.223l-0.011 0.011c5.775-5.788 9.345-13.777 9.345-22.6s-3.571-16.812-9.346-22.601l0.001 0.001c-5.743-5.873-13.746-9.514-22.6-9.514s-16.857 3.641-22.594 9.508l-0.006 0.006c-58.009 57.791-138.032 93.521-226.4 93.521s-168.391-35.73-226.41-93.531l-81.19-81.19h114.8c17.673 0 32-14.327 32-32s-14.327-32-32-32v0zM896.8 430.8h-192c-17.673 0-32-14.327-32-32s14.327-32 32-32v0h114.8l-81.2-81.2c-58.009-57.791-138.032-93.521-226.4-93.521s-168.391 35.73-226.41 93.531l0.010-0.010c-5.743 5.873-13.746 9.514-22.6 9.514s-16.857-3.641-22.594-9.508l-0.006-0.006c-5.775-5.788-9.345-13.777-9.345-22.6s3.571-16.812 9.346-22.601l-0.001 0.001c69.541-69.436 165.556-112.376 271.6-112.376s202.058 42.94 271.604 112.381l81.196 81.196v-114.8c0-17.673 14.327-32 32-32s32 14.327 32 32v0 192c0 17.673-14.327 32-32 32v0z" />
<glyph unicode="&#xf2a3;" glyph-name="arrows-down-up" data-tags="arrows-down-up" d="M470.8 342.8c5.798-5.852 9.38-13.908 9.38-22.8s-3.582-16.948-9.382-22.802l-127.998-127.998c-5.894-5.705-13.936-9.22-22.8-9.22s-16.906 3.516-22.809 9.229l-127.991 127.991c-4.578 5.546-7.355 12.726-7.355 20.555 0 17.894 14.506 32.4 32.4 32.4 7.829 0 15.009-2.777 20.61-7.399l-0.055 0.044 73.2-73.6v562.8c0 17.673 14.327 32 32 32s32-14.327 32-32v0-562.8l73.2 73.6c5.852 5.798 13.908 9.38 22.8 9.38s16.948-3.582 22.802-9.382l-0.002 0.002zM854.8 726.8l-128 128c-5.852 5.798-13.908 9.38-22.8 9.38s-16.948-3.582-22.802-9.382l-127.998-127.998c-4.578-5.546-7.355-12.726-7.355-20.555 0-17.894 14.506-32.4 32.4-32.4 7.829 0 15.009 2.777 20.61 7.399l-0.055-0.044 73.2 73.6v-562.8c0-17.673 14.327-32 32-32s32 14.327 32 32v0 562.8l73.2-73.6c5.894-5.705 13.936-9.22 22.8-9.22s16.906 3.516 22.809 9.229l-0.009-0.009c5.798 5.852 9.38 13.908 9.38 22.8s-3.582 16.948-9.382 22.802l0.002-0.002z" />
<glyph unicode="&#xf2a4;" glyph-name="arrows-horizontal" data-tags="arrows-horizontal" d="M950.8 489.2l-128-128c-5.894-5.705-13.936-9.22-22.8-9.22s-16.906 3.516-22.809 9.229l0.009-0.009c-5.798 5.852-9.38 13.908-9.38 22.8s3.582 16.948 9.382 22.802l-0.002-0.002 73.6 73.2h-677.6l73.6-73.2c5.798-5.852 9.38-13.908 9.38-22.8s-3.582-16.948-9.382-22.802l0.002 0.002c-5.894-5.705-13.936-9.22-22.8-9.22s-16.906 3.516-22.809 9.229l-127.991 127.991c-5.798 5.852-9.38 13.908-9.38 22.8s3.582 16.948 9.382 22.802l127.998 127.998c5.546 4.578 12.726 7.355 20.555 7.355 17.894 0 32.4-14.506 32.4-32.4 0-7.829-2.777-15.009-7.399-20.61l0.044 0.055-73.6-73.2h677.6l-73.6 73.2c-4.578 5.546-7.355 12.726-7.355 20.555 0 17.894 14.506 32.4 32.4 32.4 7.829 0 15.009-2.777 20.61-7.399l-0.055 0.044 128-128c5.798-5.852 9.38-13.908 9.38-22.8s-3.582-16.948-9.382-22.802l0.002 0.002z" />
<glyph unicode="&#xf2a5;" glyph-name="arrows-in" data-tags="arrows-in" d="M576 608v160c0 17.673 14.327 32 32 32s32-14.327 32-32v0-82.8l169.2 169.6c5.546 4.578 12.726 7.355 20.555 7.355 17.894 0 32.4-14.506 32.4-32.4 0-7.829-2.777-15.009-7.399-20.61l0.044 0.055-169.6-169.2h82.8c17.673 0 32-14.327 32-32s-14.327-32-32-32v0h-160c-17.673 0-32 14.327-32 32v0zM416 448h-160c-17.673 0-32-14.327-32-32s14.327-32 32-32v0h82.8l-169.6-169.2c-5.798-5.852-9.38-13.908-9.38-22.8s3.582-16.948 9.382-22.802l-0.002 0.002c5.894-5.705 13.936-9.22 22.8-9.22s16.906 3.516 22.809 9.229l-0.009-0.009 169.2 169.6v-82.8c0-17.673 14.327-32 32-32s32 14.327 32 32v0 160c0 17.673-14.327 32-32 32v0zM685.2 384h82.8c17.673 0 32 14.327 32 32s-14.327 32-32 32v0h-160c-17.673 0-32-14.327-32-32v0-160c0-17.673 14.327-32 32-32s32 14.327 32 32v0 82.8l169.2-169.6c5.894-5.705 13.936-9.22 22.8-9.22s16.906 3.516 22.809 9.229l-0.009-0.009c5.798 5.852 9.38 13.908 9.38 22.8s-3.582 16.948-9.382 22.802l0.002-0.002zM416 800c-17.673 0-32-14.327-32-32v0-82.8l-169.2 169.6c-5.546 4.578-12.726 7.355-20.555 7.355-17.894 0-32.4-14.506-32.4-32.4 0-7.829 2.777-15.009 7.399-20.61l-0.044 0.055 169.6-169.2h-82.8c-17.673 0-32-14.327-32-32s14.327-32 32-32v0h160c17.673 0 32 14.327 32 32v0 160c0 17.673-14.327 32-32 32v0z" />
<glyph unicode="&#xf2a6;" glyph-name="arrows-in-cardinal" data-tags="arrows-in-cardinal" d="M647.6 293.6c5.873-5.743 9.514-13.746 9.514-22.6s-3.641-16.857-9.508-22.594l-0.006-0.006c-5.624-5.918-13.553-9.6-22.343-9.6-0.020 0-0.040 0-0.060 0h0.003c-8.93 0.015-17 3.686-22.795 9.595l-58.405 58.405v-210.8c0-17.673-14.327-32-32-32s-32 14.327-32 32v0 210.8l-58.4-58.4c-5.656-5.14-13.204-8.286-21.486-8.286-17.673 0-32 14.327-32 32 0 8.283 3.147 15.83 8.31 21.513l-0.024-0.026 112.8 113.2c5.852 5.798 13.908 9.38 22.8 9.38s16.948-3.582 22.802-9.382l-0.002 0.002zM489.2 617.2c5.894-5.705 13.936-9.22 22.8-9.22s16.906 3.516 22.809 9.229l-0.009-0.009 112.8 113.2c6.469 5.877 10.514 14.323 10.514 23.714 0 17.673-14.327 32-32 32-9.39 0-17.836-4.045-23.69-10.487l-0.024-0.026-58.4-58.4v210.8c0 17.673-14.327 32-32 32s-32-14.327-32-32v0-210.8l-58.4 58.4c-5.877 6.469-14.323 10.514-23.714 10.514-17.673 0-32-14.327-32-32 0-9.39 4.045-17.836 10.487-23.69l0.026-0.024zM406.8 534.8l-113.2 112.8c-5.877 6.469-14.323 10.514-23.714 10.514-17.673 0-32-14.327-32-32 0-9.39 4.045-17.836 10.487-23.69l0.026-0.024 58.4-58.4h-210.8c-17.673 0-32-14.327-32-32s14.327-32 32-32v0h210.8l-58.4-58.4c-5.873-5.743-9.514-13.746-9.514-22.6s3.641-16.857 9.508-22.594l0.006-0.006c5.624-5.918 13.553-9.6 22.343-9.6 0.020 0 0.040 0 0.060 0h-0.003c8.93 0.015 17 3.686 22.795 9.595l0.005 0.005 113.2 112.8c5.798 5.852 9.38 13.908 9.38 22.8s-3.582 16.948-9.382 22.802l0.002-0.002zM928 544h-210.8l58.4 58.4c5.14 5.656 8.286 13.204 8.286 21.486 0 17.673-14.327 32-32 32-8.283 0-15.83-3.147-21.513-8.31l0.026 0.024-113.2-112.8c-5.798-5.852-9.38-13.908-9.38-22.8s3.582-16.948 9.382-22.802l-0.002 0.002 113.2-112.8c5.8-5.914 13.87-9.585 22.797-9.6h0.003c0.017 0 0.037 0 0.057 0 8.789 0 16.719 3.682 22.33 9.587l0.012 0.013c5.873 5.743 9.514 13.746 9.514 22.6s-3.641 16.857-9.508 22.594l-58.406 58.406h210.8c17.673 0 32 14.327 32 32s-14.327 32-32 32v0z" />
<glyph unicode="&#xf2a7;" glyph-name="arrows-in-line-horizontal" data-tags="arrows-in-line-horizontal" d="M544 864v-704c0-17.673-14.327-32-32-32s-32 14.327-32 32v0 704c0 17.673 14.327 32 32 32s32-14.327 32-32v0zM278.8 662.8c-5.546 4.578-12.726 7.355-20.555 7.355-17.894 0-32.4-14.506-32.4-32.4 0-7.829 2.777-15.009 7.399-20.61l-0.044 0.055 73.6-73.2h-242.8c-17.673 0-32-14.327-32-32s14.327-32 32-32v0h242.8l-73.6-73.2c-5.798-5.852-9.38-13.908-9.38-22.8s3.582-16.948 9.382-22.802l-0.002 0.002c5.894-5.705 13.936-9.22 22.8-9.22s16.906 3.516 22.809 9.229l127.991 127.991c5.798 5.852 9.38 13.908 9.38 22.8s-3.582 16.948-9.382 22.802l0.002-0.002zM960 544h-242.8l73.6 73.2c4.578 5.546 7.355 12.726 7.355 20.555 0 17.894-14.506 32.4-32.4 32.4-7.829 0-15.009-2.777-20.61-7.399l0.055 0.044-128-128c-5.798-5.852-9.38-13.908-9.38-22.8s3.582-16.948 9.382-22.802l127.998-127.998c5.894-5.705 13.936-9.22 22.8-9.22s16.906 3.516 22.809 9.229l-0.009-0.009c5.798 5.852 9.38 13.908 9.38 22.8s-3.582 16.948-9.382 22.802l0.002-0.002-73.6 73.2h242.8c17.673 0 32 14.327 32 32s-14.327 32-32 32v0z" />
<glyph unicode="&#xf2a8;" glyph-name="arrows-in-line-vertical" data-tags="arrows-in-line-vertical" d="M896 512c0-17.673-14.327-32-32-32v0h-704c-17.673 0-32 14.327-32 32s14.327 32 32 32v0h704c17.673 0 32-14.327 32-32v0zM489.2 617.2c5.894-5.705 13.936-9.22 22.8-9.22s16.906 3.516 22.809 9.229l127.991 127.991c4.578 5.546 7.355 12.726 7.355 20.555 0 17.894-14.506 32.4-32.4 32.4-7.829 0-15.009-2.777-20.61-7.399l0.055 0.044-73.2-73.6v242.8c0 17.673-14.327 32-32 32s-32-14.327-32-32v0-242.8l-73.2 73.6c-5.546 4.578-12.726 7.355-20.555 7.355-17.894 0-32.4-14.506-32.4-32.4 0-7.829 2.777-15.009 7.399-20.61l-0.044 0.055zM534.8 406.8c-5.852 5.798-13.908 9.38-22.8 9.38s-16.948-3.582-22.802-9.382l-127.998-127.998c-4.578-5.546-7.355-12.726-7.355-20.555 0-17.894 14.506-32.4 32.4-32.4 7.829 0 15.009 2.777 20.61 7.399l-0.055-0.044 73.2 73.6v-242.8c0-17.673 14.327-32 32-32s32 14.327 32 32v0 242.8l73.2-73.6c5.894-5.705 13.936-9.22 22.8-9.22s16.906 3.516 22.809 9.229l-0.009-0.009c5.798 5.852 9.38 13.908 9.38 22.8s-3.582 16.948-9.382 22.802l0.002-0.002z" />
<glyph unicode="&#xf2a9;" glyph-name="arrows-in-simple" data-tags="arrows-in-simple" d="M854.8 809.2l-169.6-169.2h114.8c17.673 0 32-14.327 32-32s-14.327-32-32-32v0h-192c-17.673 0-32 14.327-32 32v0 192c0 17.673 14.327 32 32 32s32-14.327 32-32v0-114.8l169.2 169.6c5.546 4.578 12.726 7.355 20.555 7.355 17.894 0 32.4-14.506 32.4-32.4 0-7.829-2.777-15.009-7.399-20.61l0.044 0.055zM416 448h-192c-17.673 0-32-14.327-32-32s14.327-32 32-32v0h114.8l-169.6-169.2c-5.798-5.852-9.38-13.908-9.38-22.8s3.582-16.948 9.382-22.802l-0.002 0.002c5.894-5.705 13.936-9.22 22.8-9.22s16.906 3.516 22.809 9.229l-0.009-0.009 169.2 169.6v-114.8c0-17.673 14.327-32 32-32s32 14.327 32 32v0 192c0 17.673-14.327 32-32 32v0z" />
<glyph unicode="&#xf2aa;" glyph-name="arrows-left-right" data-tags="arrows-left-right" d="M854.8 297.2l-128-128c-5.894-5.705-13.936-9.22-22.8-9.22s-16.906 3.516-22.809 9.229l0.009-0.009c-5.798 5.852-9.38 13.908-9.38 22.8s3.582 16.948 9.382 22.802l-0.002-0.002 73.6 73.2h-562.8c-17.673 0-32 14.327-32 32s14.327 32 32 32v0h562.8l-73.6 73.2c-4.578 5.546-7.355 12.726-7.355 20.555 0 17.894 14.506 32.4 32.4 32.4 7.829 0 15.009-2.777 20.61-7.399l-0.055 0.044 128-128c5.798-5.852 9.38-13.908 9.38-22.8s-3.582-16.948-9.382-22.802l0.002 0.002zM297.2 553.2c5.894-5.705 13.936-9.22 22.8-9.22s16.906 3.516 22.809 9.229l-0.009-0.009c5.798 5.852 9.38 13.908 9.38 22.8s-3.582 16.948-9.382 22.802l0.002-0.002-73.6 73.2h562.8c17.673 0 32 14.327 32 32s-14.327 32-32 32v0h-562.8l73.6 73.2c4.578 5.546 7.355 12.726 7.355 20.555 0 17.894-14.506 32.4-32.4 32.4-7.829 0-15.009-2.777-20.61-7.399l0.055 0.044-128-128c-5.798-5.852-9.38-13.908-9.38-22.8s3.582-16.948 9.382-22.802l-0.002 0.002z" />
<glyph unicode="&#xf2ab;" glyph-name="arrows-out" data-tags="arrows-out" d="M864 832v-160c0-17.673-14.327-32-32-32s-32 14.327-32 32v0 82.8l-169.2-169.6c-5.894-5.705-13.936-9.22-22.8-9.22s-16.906 3.516-22.809 9.229l0.009-0.009c-5.798 5.852-9.38 13.908-9.38 22.8s3.582 16.948 9.382 22.802l-0.002-0.002 169.6 169.2h-82.8c-17.673 0-32 14.327-32 32s14.327 32 32 32v0h160c17.673 0 32-14.327 32-32v0zM393.2 438.8l-169.2-169.6v82.8c0 17.673-14.327 32-32 32s-32-14.327-32-32v0-160c0-17.673 14.327-32 32-32v0h160c17.673 0 32 14.327 32 32s-14.327 32-32 32v0h-82.8l169.6 169.2c4.578 5.546 7.355 12.726 7.355 20.555 0 17.894-14.506 32.4-32.4 32.4-7.829 0-15.009-2.777-20.61-7.399l0.055 0.044zM832 384c-17.673 0-32-14.327-32-32v0-82.8l-169.2 169.6c-5.546 4.578-12.726 7.355-20.555 7.355-17.894 0-32.4-14.506-32.4-32.4 0-7.829 2.777-15.009 7.399-20.61l-0.044 0.055 169.6-169.2h-82.8c-17.673 0-32-14.327-32-32s14.327-32 32-32v0h160c17.673 0 32 14.327 32 32v0 160c0 17.673-14.327 32-32 32v0zM269.2 800h82.8c17.673 0 32 14.327 32 32s-14.327 32-32 32v0h-160c-17.673 0-32-14.327-32-32v0-160c0-17.673 14.327-32 32-32s32 14.327 32 32v0 82.8l169.2-169.6c5.894-5.705 13.936-9.22 22.8-9.22s16.906 3.516 22.809 9.229l-0.009-0.009c5.798 5.852 9.38 13.908 9.38 22.8s-3.582 16.948-9.382 22.802l0.002-0.002z" />
<glyph unicode="&#xf2ac;" glyph-name="arrows-out-cardinal" data-tags="arrows-out-cardinal" d="M647.6 231.6c5.873-5.743 9.514-13.746 9.514-22.6s-3.641-16.857-9.508-22.594l-0.006-0.006-112.8-113.2c-5.894-5.705-13.936-9.22-22.8-9.22s-16.906 3.516-22.809 9.229l0.009-0.009-112.8 113.2c-5.14 5.656-8.286 13.204-8.286 21.486 0 17.673 14.327 32 32 32 8.283 0 15.83-3.147 21.513-8.31l-0.026 0.024 58.4-58.4v210.8c0 17.673 14.327 32 32 32s32-14.327 32-32v0-210.8l58.4 58.4c5.743 5.873 13.746 9.514 22.6 9.514s16.857-3.641 22.594-9.508l0.006-0.006zM421.6 792.4l58.4 58.4v-210.8c0-17.673 14.327-32 32-32s32 14.327 32 32v0 210.8l58.4-58.4c5.8-5.914 13.87-9.585 22.797-9.6h0.003c0.017 0 0.037 0 0.057 0 8.789 0 16.719 3.682 22.33 9.587l0.012 0.013c5.873 5.743 9.514 13.746 9.514 22.6s-3.641 16.857-9.508 22.594l-0.006 0.006-112.8 113.2c-5.894 5.705-13.936 9.22-22.8 9.22s-16.906-3.516-22.809-9.229l0.009 0.009-112.8-113.2c-5.14-5.656-8.286-13.204-8.286-21.486 0-17.673 14.327-32 32-32 8.283 0 15.83 3.147 21.513 8.31l-0.026-0.024zM173.2 480h210.8c17.673 0 32 14.327 32 32s-14.327 32-32 32v0h-210.8l58.4 58.4c5.14 5.656 8.286 13.204 8.286 21.486 0 17.673-14.327 32-32 32-8.283 0-15.83-3.147-21.513-8.31l0.026 0.024-113.2-112.8c-5.798-5.852-9.38-13.908-9.38-22.8s3.582-16.948 9.382-22.802l-0.002 0.002 113.2-112.8c5.8-5.914 13.87-9.585 22.797-9.6h0.003c0.017 0 0.037 0 0.057 0 8.789 0 16.719 3.682 22.33 9.587l0.012 0.013c5.873 5.743 9.514 13.746 9.514 22.6s-3.641 16.857-9.508 22.594l-0.006 0.006zM950.8 534.8l-113.2 112.8c-5.656 5.14-13.204 8.286-21.486 8.286-17.673 0-32-14.327-32-32 0-8.283 3.147-15.83 8.31-21.513l-0.024 0.026 58.4-58.4h-210.8c-17.673 0-32-14.327-32-32s14.327-32 32-32v0h210.8l-58.4-58.4c-5.873-5.743-9.514-13.746-9.514-22.6s3.641-16.857 9.508-22.594l0.006-0.006c5.624-5.918 13.553-9.6 22.343-9.6 0.020 0 0.040 0 0.060 0h-0.003c8.93 0.015 17 3.686 22.795 9.595l0.005 0.005 113.2 112.8c5.798 5.852 9.38 13.908 9.38 22.8s-3.582 16.948-9.382 22.802l0.002-0.002z" />
</font>
</defs>
</svg>
